Важное объявление!
У Нас Все раздачи мультитрекерные, при нуле пиров в релизах, можете смело вставать на закачку!
 
Автор Сообщение

HUNTER

Стаж:
4 года 4 месяца
Сообщений:
56722

Репутация: 101

[+] [-]
Вне форума [Профиль] [ЛС]

Не святой / Least Among Saints
Страна: США
Студия: LA Saints Production
Жанр: драма
Год выпуска: 2012
Продолжительность: 01:49:09
Перевод: Одноголосый закадровый
Cубтитры: русские, английские
Оригинальная аудиодорожка: английский
Режиссер: Марти Папазян / Marty Papazian
В ролях: Марти Папазян, Тристан Лэйк Либу, Лора Сан Джакомо, Азура Скай, Одри Мари Андерсон, А.Дж. Кук, Ронни Джин Блевинс, Чарльз С. Даттон, Тейлор Кинни, Ломбардо Бойяр
Описание: Возвращаясь домой Энтони Хэйворд, боевой ветеран имеет за плечами неудачный брак и неопределенное будущее. Однако, когда возникают проблемы у соседского десятилетнего мальчика и он просит о помощи, Энтони не в силах отказать. Вместе они отправляются на поиски давно пропавшего отца. В разгар этой миссии, Энтони, первый раз, после возвращения с войны, начинает понимать ценность связи между людьми.
Кинопоиск
Sample
Тип релиза: WEB-DL 720p
Контейнер: MKV
Видео: MPEG4 AVC Video, H264, 16:9, 1280x720, 23.976 fps, 4030 kbps
Аудио: Russian (AC3, 2 ch, 192 kbps, 16 bits, 48.0 KHz) - VO
Аудио 2: English (AC3, 6 ch, 384 kbps, 16 bits, 48.0 KHz) - оригинал
Формат субтитров: softsub (SRT)

MediaInfo

General
Unique ID : 242746422687730718454952918277480627748 (0xB69F42ABD9854532B74F2F2A574DBE24)
Complete name : K:\Least Among Saints 2012 WEB-DL 720p.mkv
Format : Matroska
Format version : Version 4 / Version 2
File size : 3.58 GiB
Duration : 1h 49mn
Overall bit rate : 4 699 Kbps
Encoded date : UTC 2015-09-17 14:35:06
Writing application : mkvmerge v6.1.0 ('Old Devil') built on Mar 2 2013 14:32:37
Writing library : libebml v1.3.0 + libmatroska v1.4.0
Video
ID : 1
Format : AVC
Format/Info : Advanced Video Codec
Format profile : High@L3.1
Format settings, CABAC : No
Format settings, ReFrames : 2 frames
Format settings, GOP : N=1
Codec ID : V_MPEG4/ISO/AVC
Duration : 1h 49mn
Bit rate : 4 030 Kbps
Width : 1 280 pixels
Height : 720 pixels
Display aspect ratio : 16:9
Frame rate mode : Constant
Frame rate : 23.976 fps
Color space : YUV
Chroma subsampling : 4:2:0
Bit depth : 8 bits
Scan type : Progressive
Bits/(Pixel*Frame) : 0.182
Stream size : 3.07 GiB (86%)
Language : English
Default : Yes
Forced : No
Color primaries : BT.709
Transfer characteristics : BT.709
Matrix coefficients : BT.709
Audio #1
ID : 2
Format : AC-3
Format/Info : Audio Coding 3
Mode extension : CM (complete main)
Format settings, Endianness : Big
Codec ID : A_AC3
Duration : 1h 49mn
Bit rate mode : Constant
Bit rate : 192 Kbps
Channel count : 2 channels
Channel positions : Front: L R
Sampling rate : 48.0 KHz
Bit depth : 16 bits
Compression mode : Lossy
Stream size : 150 MiB (4%)
Language : Russian
Default : Yes
Forced : No
Audio #2
ID : 3
Format : AC-3
Format/Info : Audio Coding 3
Mode extension : CM (complete main)
Format settings, Endianness : Big
Codec ID : A_AC3
Duration : 1h 49mn
Bit rate mode : Constant
Bit rate : 384 Kbps
Channel count : 6 channels
Channel positions : Front: L C R, Side: L R, LFE
Sampling rate : 48.0 KHz
Bit depth : 16 bits
Compression mode : Lossy
Stream size : 300 MiB (8%)
Language : English
Default : No
Forced : No
Text #1
ID : 4
Format : UTF-8
Codec ID : S_TEXT/UTF8
Codec ID/Info : UTF-8 Plain Text
Language : Russian
Default : No
Forced : No
Text #2
ID : 5
Format : UTF-8
Codec ID : S_TEXT/UTF8
Codec ID/Info : UTF-8 Plain Text
Language : English
Default : No
Forced : No
Menu
00:00:00.000 : en:Chapter 1
00:10:00.000 : en:Chapter 2
00:20:04.000 : en:Chapter 3
00:30:00.000 : en:Chapter 4
00:40:24.000 : en:Chapter 5
00:50:15.000 : en:Chapter 6
01:01:40.000 : en:Chapter 7
01:11:06.000 : en:Chapter 8
01:20:00.000 : en:Chapter 9
01:30:01.000 : en:Chapter 10
01:45:19.000 : en:Credits

Скриншоты


_________________
Показать сообщения:    

Текущее время: Сегодня 17:02

Часовой пояс: GMT



Вы не можете начинать темы
Вы не можете отвечать на сообщения
Вы не можете редактировать свои сообщения
Вы не можете удалять свои сообщения
Вы не можете голосовать в опросах
Вы не можете прикреплять файлы к сообщениям
Вы не можете скачивать файлы