Важное объявление!
У Нас Все раздачи мультитрекерные, при нуле пиров в релизах, можете смело вставать на закачку!
 
Автор Сообщение

HUNTER

Стаж:
4 года 4 месяца
Сообщений:
56809

Репутация: 101

[+] [-]
Вне форума [Профиль] [ЛС]

Наша рыбалка.
Щука
на кружки.

Страна: Украина
Тематика: Рыбалка
Тип раздаваемого материала: Видеоурок
Продолжительность: 00:52:09
Год выпуска: 2013
Язык: Русский
Перевод: Не требуется
Режиссер / Телекомпания: Борис Саксонов
Описание: Фильм снят в рамках проекта -- Наша рыбалка и посвящен ловле щуки кружками. Снимался в конце ноября. Съемки проходили на Днепре, в районе высокой дамбы.
Количество снастей использованных на рыбалке -- восемь кружков.
Фильм рассказывает, где найти щуку поздней осенью, как оснастить кружки, как их поставить, как вываживать рыбу.
Качество: WEB-Rip
Формат: AVI
Видео кодек: XviD
Аудио кодек: MP3
Видео: 640 x 352 (1.818) at 25.000 fps: MPEG-4 Visual at 1500 Кбит/сек
Аудио: 2 канала, 44,1 КГц: MPEG Audio at 128 Кбит/сек-За видео спасибо Борису Саксонову-

Скриншоты

MediaInfo

Общее
Полное имя : C:\Documents and Settings\User\Рабочий стол\Щука на кружки.avi
Формат : AVI
Формат/Информация : Audio Video Interleave
Размер файла : 611 Мбайт
Продолжительность : 52 м.
Общий поток : 1637 Кбит/сек
Библиотека кодирования : VirtualDub build 32842/release
Видео
Идентификатор : 0
Формат : MPEG-4 Visual
Профиль формата : Advanced Simple@L5
Параметр BVOP формата : 2
Параметр QPel формата : Нет
Параметр GMC формата : Без точки перехода
Параметр матрицы формата : Default (H.263)
Режим смешивания : Сжатый битовый поток
Идентификатор кодека : XVID
Идентификатор кодека/Подсказка : XviD
Продолжительность : 52 м.
Битрейт : 1500 Кбит/сек
Ширина : 640 пикселей
Высота : 352 пикселя
Соотношение сторон : 16:9
Частота кадров : 25,000 кадров/сек
Цветовое пространство : YUV
Субдискретизация насыщенности : 4:2:0
Битовая глубина : 8 бит
Тип развёртки : Прогрессивная
Метод сжатия : С потерями
Бит/(Пиксели*Кадры) : 0.266
Размер потока : 559 Мбайт (92%)
Библиотека кодирования : XviD 64
Аудио
Идентификатор : 1
Формат : MPEG Audio
Версия формата : Version 1
Профиль формата : Layer 3
Режим : Joint stereo
Расширение режима : MS Stereo
Идентификатор кодека : 55
Идентификатор кодека/Подсказка : MP3
Продолжительность : 52 м.
Вид битрейта : Постоянный
Битрейт : 128 Кбит/сек
Каналы : 2 канала
Частота : 44,1 КГц
Метод сжатия : С потерями
Размер потока : 47,6 Мбайт (8%)
Выравнивание : Разделение по промежуткам
Продолжительность промежутка : 40 мс. (1,00 видеокадр)
Время предзагрузки промежутка : 500 мс.

_________________
Показать сообщения:    

Текущее время: Сегодня 17:15

Часовой пояс: GMT



Вы не можете начинать темы
Вы не можете отвечать на сообщения
Вы не можете редактировать свои сообщения
Вы не можете удалять свои сообщения
Вы не можете голосовать в опросах
Вы не можете прикреплять файлы к сообщениям
Вы не можете скачивать файлы