Важное объявление!
У Нас Все раздачи мультитрекерные, при нуле пиров в релизах, можете смело вставать на закачку!
 
Автор Сообщение

HUNTER

Стаж:
4 года 4 месяца
Сообщений:
56848

Репутация: 101

[+] [-]
Вне форума [Профиль] [ЛС]

Наша рыбалка.
Судак на Каневском
водохранилище .

Страна: Украина
Тематика: Рыбалка
Тип раздаваемого материала: Видеоурок
Продолжительность: 00:25:56
Год выпуска: 2012
Язык: Русский
Перевод: Не требуется
Режиссер / Телекомпания: Борис Саксонов
Описание: Посвящен ловле судака на Каневском водохранилище, в период сразу по окончанию запрета.
Качество: WEB-Rip
Формат: AVI
Видео кодек: XviD
Аудио кодек: MP3
Видео: 640 x 352 (1.818) at 25.000 fps: MPEG-4 Visual at 1 500 Кбит/сек
Аудио: 2 канала, 44,1 КГц: MPEG Audio at 128 Кбит/сек-За видео спасибо Борису Саксонову-

Скриншоты

MediaInfo

General
Complete name : C:\Documents and Settings\User\Рабочий стол\Судак на Каневском водохранилище.avi
Format : AVI
Format/Info : Audio Video Interleave
File size : 304 MiB
Duration : 25mn 56s
Overall bit rate : 1 637 Kbps
Writing library : VirtualDub build 32842/release
Video
ID : 0
Format : MPEG-4 Visual
Format profile : Advanced Simple@L5
Format settings, BVOP : 2
Format settings, QPel : No
Format settings, GMC : No warppoints
Format settings, Matrix : Default (H.263)
Muxing mode : Packed bitstream
Codec ID : XVID
Codec ID/Hint : XviD
Duration : 25mn 56s
Bit rate : 1 500 Kbps
Width : 640 pixels
Height : 352 pixels
Display aspect ratio : 16:9
Frame rate : 25.000 fps
Color space : YUV
Chroma subsampling : 4:2:0
Bit depth : 8 bits
Scan type : Progressive
Compression mode : Lossy
Bits/(Pixel*Frame) : 0.266
Stream size : 278 MiB (92%)
Writing library : XviD 64
Audio
ID : 1
Format : MPEG Audio
Format version : Version 1
Format profile : Layer 3
Mode : Joint stereo
Mode extension : MS Stereo
Codec ID : 55
Codec ID/Hint : MP3
Duration : 25mn 56s
Bit rate mode : Constant
Bit rate : 128 Kbps
Channel(s) : 2 channels
Sampling rate : 44.1 KHz
Compression mode : Lossy
Stream size : 23.7 MiB (8%)
Alignment : Split accross interleaves
Interleave, duration : 40 ms (1.00 video frame)
Interleave, preload duration : 500 ms

_________________
Показать сообщения:    

Текущее время: Сегодня 00:54

Часовой пояс: GMT



Вы не можете начинать темы
Вы не можете отвечать на сообщения
Вы не можете редактировать свои сообщения
Вы не можете удалять свои сообщения
Вы не можете голосовать в опросах
Вы не можете прикреплять файлы к сообщениям
Вы не можете скачивать файлы
Наши партнеры: интернет магазин Ивановского трикотажа textilla.ru