Важное объявление!
У Нас Все раздачи мультитрекерные, при нуле пиров в релизах, можете смело вставать на закачку!
 
Автор Сообщение

HUNTER

Стаж:
4 года 4 месяца
Сообщений:
56809

Репутация: 101

[+] [-]
Вне форума [Профиль] [ЛС]

Нация пришельцев Душа и тело / Alien Nation: Body and Soul
Страна: США, Германия
Студия: 20th Century Fox Television
Жанр: Фантастика
Год выпуска: 1995
Продолжительность: 01:29:55
Перевод: Профессиональный (многоголосый закадровый)
Cубтитры: английские, испанские
Оригинальная аудиодорожка: английский
Режиссер: Кеннет Джонсон / Kenneth Johnson/
В ролях: Гари Грэхэм, Эрик Пиерпоинт, Мишель Скарабелли, Терри Триз, Лорен Вудленд, Шон Сикс, Джефф Маркус, Рон Фасслер, Дженни Гэго, Леон Рассом
Описание: С секретной базы пришельцев, проводящих подпольные эксперименты по созданию биологического оружия, сбегают двое рабов - гигант и девочка полукровка, ставшие печальным результатом одного из инопланетных опытов. Гибель агента, устремившегося по следу беглецов, открывает полицейское расследование, за которое берется бравый дуэт из детектива Сайкса и полицейского-пришельца Франциско…
Звуковая дорожка из этой раздачи: [url=viewtopic.php?t=2336574]Нация пришельцев 3: Душа и тело / Alien Nation: Body and Soul[/url]
Бонусы: Комментарии, фотографии, ролики
Меню: Есть, английский, статичное, озвученное
kinopoisk.ru
imdb.com
Сэмпл
Тип релиза: DVD5 (Custom)
Контейнер: DVD-Video
Видео: NTSC 4:3 (720x480) VBR
Аудио: Russian (Dolby AC3, 192 Кбит/сек, 2 ch)
Аудио 2: English (Dolby AC3, 192 Кбит/сек, 2 ch)
Аудио 3: English (Dolby AC3, 192 Кбит/сек, 2 ch) Dir's comm
Формат субтитров: prerendered (DVD/IDX+SUB)

MediaInfo

Title: Alien Nation Body and Soul (Kenneth Johnson) [1995]
Size: 4.27 Gb ( 4 475 808,00 KBytes ) - DVD-5
Enabled regions: 1, 2, 3, 4, 5, 6, 7, 8
VTS_01 :
Play Length: 00:00:00
Video: NTSC 4:3 (720x480) VBR
Audio:
Not specified (Dolby AC3, 2 ch)
Not specified (Dolby AC3, 2 ch)
Not specified (Dolby AC3, 2 ch)
Subtitles:
Not specified
Not specified
Not specified
VTS_02 :
Play Length: 00:00:08
Video: NTSC 4:3 (720x480) VBR
VTS_03 :
Play Length: 00:00:00
Video: NTSC 4:3 (720x480) VBR
Audio:
Not specified (Dolby AC3, 2 ch)
Not specified (Dolby AC3, 2 ch)
Not specified (Dolby AC3, 2 ch)
Subtitles:
Not specified
Not specified
Not specified
VTS_04 :
Play Length: 01:29:55
Video: NTSC 4:3 (720x480) VBR
Audio:
Russian (Dolby AC3, 2 ch)
English (Dolby AC3, 2 ch)
English (Dolby AC3, 2 ch)
Subtitles:
English
Espanol
Espanol
VTS_05 :
Play Length: 00:00:00
Video: NTSC 4:3 (720x480) VBR
VTS_06 :
Play Length: 00:00:00
Video: NTSC 4:3 (720x480) VBR
VTS_07 :
Play Length: 00:22:46+00:07:29
Video: NTSC 4:3 (720x480) VBR
Audio:
English (Dolby AC3, 2 ch)
VTS_08 :
Play Length: 00:00:15
Video: NTSC 4:3 (720x480) VBR
Audio:
English (Dolby AC3, 6 ch)
* Menus Information *
VIDEO_TS Menu
Video:
NTSC 4:3 (720x480) VBR
English Language Unit :
Title Menu
VTS_01 Menu
Video:
NTSC 4:3 (720x480) VBR
Auto Pan&Scan, Auto Letterboxed
English Language Unit :
Root Menu
VTS_02 Menu
Video:
NTSC 4:3 (720x480) VBR
Auto Pan&Scan, Auto Letterboxed
English Language Unit :
Root Menu
VTS_03 Menu
Video:
NTSC 4:3 (720x480) VBR
English Language Unit :
Root Menu
Chapter (PTT) Menu
VTS_04 Menu
Video:
NTSC 4:3 (720x480) VBR
Audio:
Not specified (Dolby AC3, 2 ch)
English Language Unit :
Root Menu
Subpicture Menu
Audio Menu
Angle menu
Chapter (PTT) Menu
VTS_05 Menu
Video:
NTSC 4:3 (720x480) VBR
Auto Pan&Scan, Auto Letterboxed
English Language Unit :
Root Menu
VTS_06 Menu
Video:
NTSC 4:3 (720x480) VBR
Auto Pan&Scan, Auto Letterboxed
English Language Unit :
Root Menu
VTS_07 Menu
Video:
NTSC 4:3 (720x480) VBR
Auto Pan&Scan, Auto Letterboxed
English Language Unit :
Root Menu
VTS_08 Menu
Video:
NTSC 4:3 (720x480) VBR
Auto Pan&Scan, Auto Letterboxed
English Language Unit :
Root Menu
*****
Общее
Полное имя : F:\Torrent T\Alien Nation Body and Soul (Kenneth Johnson) [1995]\VIDEO_TS\VTS_04_1.VOB
Формат : MPEG-PS
Размер файла : 1024 Мбайт
Продолжительность : 27 м.
Режим общего битрейта : Переменный
Общий поток : 5217 Кбит/сек
Видео
Идентификатор : 224 (0xE0)
Формат : MPEG Video
Версия формата : Version 2
Профиль формата : Main@Main
Параметр BVOP формата : Да
Параметр матрицы формата : Выборочная
Параметр GOP формата : Variable
Продолжительность : 27 м.
Вид битрейта : Переменный
Битрейт : 4538 Кбит/сек
Максимальный битрейт : 9800 Кбит/сек
Ширина : 720 пикселей
Высота : 480 пикселей
Соотношение сторон : 4:3
Частота кадров : 29,970 кадров/сек
Стандарт вещания : Component
Цветовое пространство : YUV
Субдискретизация насыщенности : 4:2:0
Битовая глубина : 8 бит
Тип развёртки : Чересстрочная
Порядок развёртки : Верхнее поле первое
Метод сжатия : С потерями
Бит/(Пиксели*Кадры) : 0.438
Временной код первого кадра : 00:59:59;00
Оригинал временного кода : Group of pictures header
Размер потока : 891 Мбайт (87%)
Основные цвета : BT.601 NTSC
Характеристики трансфера : BT.601
Коэффициенты матрицы : BT.601
Аудио #1
Идентификатор : 189 (0xBD)-128 (0x80)
Формат : AC-3
Формат/Информация : Audio Coding 3
Расширение режима : CM (complete main)
Параметр Endianness формата : Big
Режим смешивания : DVD-Video
Продолжительность : 27 м.
Вид битрейта : Постоянный
Битрейт : 192 Кбит/сек
Каналы : 2 канала
Расположение каналов : Front: L R
Частота : 48,0 КГц
Битовая глубина : 16 бит
Метод сжатия : С потерями
Размер потока : 37,7 Мбайт (4%)
Аудио #2
Идентификатор : 189 (0xBD)-129 (0x81)
Формат : AC-3
Формат/Информация : Audio Coding 3
Расширение режима : CM (complete main)
Параметр Endianness формата : Big
Режим смешивания : DVD-Video
Продолжительность : 27 м.
Вид битрейта : Постоянный
Битрейт : 192 Кбит/сек
Каналы : 2 канала
Расположение каналов : Front: L R
Частота : 48,0 КГц
Битовая глубина : 16 бит
Метод сжатия : С потерями
Размер потока : 37,7 Мбайт (4%)
Аудио #3
Идентификатор : 189 (0xBD)-130 (0x82)
Формат : AC-3
Формат/Информация : Audio Coding 3
Расширение режима : CM (complete main)
Параметр Endianness формата : Big
Режим смешивания : DVD-Video
Продолжительность : 27 м.
Вид битрейта : Постоянный
Битрейт : 192 Кбит/сек
Каналы : 2 канала
Расположение каналов : Front: L R
Частота : 48,0 КГц
Битовая глубина : 16 бит
Метод сжатия : С потерями
Размер потока : 37,7 Мбайт (4%)
Текст #1
Идентификатор : 189 (0xBD)-32 (0x20)
Формат : RLE
Формат/Информация : Run-length encoding
Режим смешивания : DVD-Video
Продолжительность : 27 м.
Текст #2
Идентификатор : 189 (0xBD)-33 (0x21)
Формат : RLE
Формат/Информация : Run-length encoding
Режим смешивания : DVD-Video
Продолжительность : 27 м.
Текст #3
Идентификатор : 189 (0xBD)-34 (0x22)
Формат : RLE
Формат/Информация : Run-length encoding
Режим смешивания : DVD-Video
Текст #4
Идентификатор : 224 (0xE0)-CC3
Формат : EIA-608
Режим смешивания, доп. информация : Muxed in Video #1
Вид битрейта : Постоянный
Размер потока : 0,00 байт (0%)
Меню

Скриншоты меню




Скриншоты




Скриншоты доп. материалов



Скриншоты программ

1. PgcDemux 1.2.0.4 - Разборка оригинального DVD.
2. BeSweet +BeLight - Кодирование звуковой дорожки извлёченной из DVDRip программой VirtualDub в формате *.MP3 в формат *.wav и PgcDemux в в формате *.AC-3 в формат *.wav
3. Adobe Audition CC - Проверка синхронизации звуковых файлов (оригинальных дорожек и русской дорожки).
4. Minnetonka SurCode for Dolby Digital - Кодирование звука *.wav в формат в *.AC-3 из файла *.wav синхронизированных в Adobe Audition CC.
5. MuxMan DVD - Сборка DVD.
6. DVDRemake Pro - Реавторинг DVD.
7. CyberLink PowerDVD - Проверка правильности расположения дорожек и субтитров, проверка работы на софтплеере.
8. MPEG2Cut-1.15 - Изготовление сэмпла для раздачи.
PgcDemux

Adobe Audition CC

Minnetonka

MuxMan DVD

DVDRemake Pro

CyberLink PowerDVD

_________________
Показать сообщения:    

Текущее время: Сегодня 16:17

Часовой пояс: GMT



Вы не можете начинать темы
Вы не можете отвечать на сообщения
Вы не можете редактировать свои сообщения
Вы не можете удалять свои сообщения
Вы не можете голосовать в опросах
Вы не можете прикреплять файлы к сообщениям
Вы не можете скачивать файлы