Важное объявление!
У Нас Все раздачи мультитрекерные, при нуле пиров в релизах, можете смело вставать на закачку!
 
Автор Сообщение

palych74

Стаж:
4 года 4 месяца
Сообщений:
80

Репутация: 21

[+] [-]
Вне форума [Профиль] [ЛС]

НатураNature-
Год выпуска: 2011
Страна: США
Жанр: триллер, драма
Продолжительность: 01:26:17
Перевод: Профессиональный (двухголосый, закадровый) [НТВ+]
Субтитры: нет-Режиссер:
  • Джефф Пикетт / Jeff Pickett
В ролях:
  • Людмила Ширяева, Райан Харпер Грэй, Джефф Пикетт, Лиззи Дэвис, Стивен Клейн, Марта Кэри, Брендан Клиффорд и др.
-Описание: Фильм представляет эротическую драму о молодой паре, которая пытается восстановить свою сексуальную страсть. После неудачного эксперимента с ролевыми играми они на неделю выбираются глубоко в лес для занятий сексом. Постепенно они осознают, что за ними следует некто, который наблюдает за интимными моментами их отношений. С этим преследователем все, что они намеревались сделать приобретает новый смысл, и они должны решить как далеко следует зайти, чтобы получить нужный результат. Насколько близко они позволят ему приблизиться к ним, и какова будет для них цена этого? Фильм исследует секс через моногамные отношения на фоне величественных лесов, окружающих живописные горы в штате Орегон. В конечном счете фильм является незабываемым путешествием в природу страсти.- -Качество: DVDRip
Формат: AVI
Видео кодек: XviD
Аудио кодек: MP3
Видео: 624x352 (16:9), 23.976 fps, XviD ~1 006 kbps avg, 0.191 bit/pixel
Аудио: 44.1 kHz, MP3, 2ch, ~112 Kbps kbps (RUS)
- -

MediaInfo

Format : AVI
Format/Info : Audio Video Interleave
File size : 694 MiB
Duration : 1h 26mn
Overall bit rate : 1 125 Kbps
Writing application : VirtualDubMod 1.5.10.2 (build 2540/release)
Writing library : VirtualDubMod build 2540/release
Video
ID : 0
Format : MPEG-4 Visual
Format profile : Advanced Simple@L5
Format settings, BVOP : 2
Format settings, QPel : No
Format settings, GMC : No warppoints
Format settings, Matrix : Default (H.263)
Codec ID : XVID
Codec ID/Hint : XviD
Duration : 1h 26mn
Bit rate : 1 006 Kbps
Width : 624 pixels
Height : 352 pixels
Display aspect ratio : 16:9
Frame rate : 23.976 fps
Color space : YUV
Chroma subsampling : 4:2:0
Bit depth : 8 bits
Scan type : Progressive
Compression mode : Lossy
Bits/(Pixel*Frame) : 0.191
Stream size : 621 MiB (89%)
Writing library : XviD 1.2.1 (UTC 2008-12-04)
Audio
ID : 1
Format : MPEG Audio
Format version : Version 1
Format profile : Layer 3
Mode : Joint stereo
Mode extension : MS Stereo
Codec ID : 55
Codec ID/Hint : MP3
Duration : 1h 24mn
Bit rate mode : Constant
Bit rate : 112 Kbps
Channel(s) : 2 channels
Sampling rate : 44.1 KHz
Compression mode : Lossy
Stream size : 67.8 MiB (10%)
Alignment : Split accross interleaves
Interleave, duration : 43 ms (1.02 video frame)
Interleave, preload duration : 500 ms

Скриншоты

Показать сообщения:    

Текущее время: Сегодня 12:41

Часовой пояс: GMT



Вы не можете начинать темы
Вы не можете отвечать на сообщения
Вы не можете редактировать свои сообщения
Вы не можете удалять свои сообщения
Вы не можете голосовать в опросах
Вы не можете прикреплять файлы к сообщениям
Вы не можете скачивать файлы