Важное объявление!
У Нас Все раздачи мультитрекерные, при нуле пиров в релизах, можете смело вставать на закачку!
 
Автор Сообщение

HUNTER

Стаж:
4 года 4 месяца
Сообщений:
56722

Репутация: 101

[+] [-]
Вне форума [Профиль] [ЛС]

-Настольный футбол / Metegol / Futbolin--
Страна: Аргентина, Испания
Жанр: мультфильм, приключения, семейный, спорт
Продолжительность: 01:46:38
Год выпуска: 2013
Перевод: профессиональный многоголосый закадровый (AlexFilm)
Субтитры: русские, испанские-Режиссёр: Хуан Хосе Кампанелла (Juan Jose Campanella)
Роли озвучивали: Фабиан Джианола, Горацио Фонтова, Лусия Масьель, Давид Масахник, Пабло Раго, Диего Рамос, Мигель Анхель Родригез, Коко Сили...-Описание: История Амадео, застенчивого мальчика с добрым сердцем, и его друзей — отважных футболистов, с помощью которых Амадео должен вернуть себе честь, достоинство и настоящую любовь. Это фильм о дружбе, верности и страсти, действие которого разворачивается на футбольном поле.-Релиз:
Перевод: Константин Кривоногов
Монтаж и сведение звука: Михаил Шорыгин
Озвучание:
  • Татьяна Манетина
  • Владимир Курдов
  • Михаил Суслов
  • Сергей Пономарёв
  • Роман Сопко
  • Константин Погодаев- -Качество: BDRip
    Формат: AVI
    Видео кодек: XviD
    Аудио кодек: AC3
    Видео: 720x304 (2.37:1), 23.976 fps, XviD ~2000 kbps avg, 0.38 bit/pixel
    Аудио 1: [RUS] 48 kHz, AC3 Dolby Digital, 3/2 (L,C,R,l,r) + LFE ch, ~448.00 kbps (MVO AlexFilm)
    Аудио 2: [ESP] 48 kHz, AC3 Dolby Digital, 3/2 (L,C,R,l,r) + LFE ch, ~448.00 kbps (Argentinean)-Цитата:
    Цитата:

    Переведено и озвучено при поддержке пользователей AlexFilm и HDClub: maxximik, Sk1f7mu, Пак Чой, Дамбо, ghostrider, gelom, Maike, pacienti, irrlicht, r0mka, trava, olsdy, Sportage.

    -

    MediaInfo

    Format : AVI
    Format/Info : Audio Video Interleave
    Format profile : OpenDML
    File size : 2.18 GiB
    Duration : 1h 46mn
    Overall bit rate : 2 929 Kbps
    Movie name : Metegol 2013 @ AlexFilm
    Writing application : VirtualDubMod 1.5.10.2 (build 2542/release)
    Video
    ID : 0
    Format : MPEG-4 Visual
    Format profile : Advanced Simple@L5
    Format settings, BVOP : 1
    Format settings, QPel : No
    Format settings, GMC : No warppoints
    Format settings, Matrix : Default (MPEG)
    Codec ID : XVID
    Codec ID/Hint : XviD
    Duration : 1h 46mn
    Bit rate : 2 015 Kbps
    Width : 720 pixels
    Height : 304 pixels
    Display aspect ratio : 2.35:1
    Frame rate : 23.976 fps
    Color space : YUV
    Chroma subsampling : 4:2:0
    Bit depth : 8 bits
    Scan type : Progressive
    Compression mode : Lossy
    Bits/(Pixel*Frame) : 0.384
    Stream size : 1.50 GiB (69%)
    Writing library : XviD 73
    Audio #1
    ID : 1
    Format : AC-3
    Format/Info : Audio Coding 3
    Mode extension : CM (complete main)
    Format settings, Endianness : Big
    Codec ID : 2000
    Duration : 1h 46mn
    Bit rate mode : Constant
    Bit rate : 448 Kbps
    Channel(s) : 6 channels
    Channel positions : Front: L C R, Side: L R, LFE
    Sampling rate : 48.0 KHz
    Bit depth : 16 bits
    Compression mode : Lossy
    Stream size : 342 MiB (15%)
    Alignment : Split accross interleaves
    Interleave, duration : 42 ms (1.00 video frame)
    Interleave, preload duration : 500 ms
    Audio #2
    ID : 2
    Format : AC-3
    Format/Info : Audio Coding 3
    Mode extension : CM (complete main)
    Format settings, Endianness : Big
    Codec ID : 2000
    Duration : 1h 46mn
    Bit rate mode : Constant
    Bit rate : 448 Kbps
    Channel(s) : 6 channels
    Channel positions : Front: L C R, Side: L R, LFE
    Sampling rate : 48.0 KHz
    Bit depth : 16 bits
    Compression mode : Lossy
    Stream size : 342 MiB (15%)
    Alignment : Split accross interleaves
    Interleave, duration : 42 ms (1.00 video frame)
    Interleave, preload duration : 500 ms

    Скриншоты


    -

  • _________________
    Показать сообщения:    

    Текущее время: Сегодня 08:20

    Часовой пояс: GMT



    Вы не можете начинать темы
    Вы не можете отвечать на сообщения
    Вы не можете редактировать свои сообщения
    Вы не можете удалять свои сообщения
    Вы не можете голосовать в опросах
    Вы не можете прикреплять файлы к сообщениям
    Вы не можете скачивать файлы