Важное объявление!
У Нас Все раздачи мультитрекерные, при нуле пиров в релизах, можете смело вставать на закачку!
 
Автор Сообщение

HUNTER

Стаж:
4 года 4 месяца
Сообщений:
56839

Репутация: 101

[+] [-]
Вне форума [Профиль] [ЛС]

-Настольный футбол / Metegol / Futbolin--
Страна: Аргентина, Испания
Жанр: мультфильм, приключения, семейный, спорт
Продолжительность: 01:46:38
Год выпуска: 2013
Перевод: профессиональный многоголосый закадровый (AlexFilm)
Субтитры: русские, испанские-Режиссёр: Хуан Хосе Кампанелла (Juan Jose Campanella)
Роли озвучивали: Фабиан Джианола, Горацио Фонтова, Лусия Масьель, Давид Масахник, Пабло Раго, Диего Рамос, Мигель Анхель Родригез, Коко Сили...-Описание: История Амадео, застенчивого мальчика с добрым сердцем, и его друзей — отважных футболистов, с помощью которых Амадео должен вернуть себе честь, достоинство и настоящую любовь. Это фильм о дружбе, верности и страсти, действие которого разворачивается на футбольном поле.-Релиз:
Перевод: Константин Кривоногов
Монтаж и сведение звука: Михаил Шорыгин
Озвучание:
  • Татьяна Манетина
  • Владимир Курдов
  • Михаил Суслов
  • Сергей Пономарёв
  • Роман Сопко
  • Константин Погодаев- -Качество: BDRip 1080p
    Формат: MKV
    Видео кодек: x264
    Аудио кодек: DTS, AC3
    Видео: 1920x800 (2.40:1), 23,976 fps, MPEG-4 AVC ~11.0 Mbps kbps avg, 0.298 bit/pixel
    Аудио 1: [RUS] 48 kHz/24bit, DTS, 3/2 (L,C,R,l,r) + LFE ch, ~768 kbps (MVO AlexFilm)
    Аудио 2: [ESP] 48 kHz/24bit, DTS, 3/2 (L,C,R,l,r) + LFE ch, ~768 kbps (Argentinean)
    Аудио 2: [ESP] 48 kHz/24bit, DTS, 3/2 (L,C,R,l,r) + LFE ch, ~768 kbps (Castellano)
    Аудио 2: [ESP] 48 kHz/24bit, DTS, 3/2 (L,C,R,l,r) + LFE ch, ~768 kbps (Latino Neutro)
    Аудио 2: [ESP] 48 kHz, AC3 Dolby Digital, 2/0 (L,R) ch, ~192 kbps (Comentarios Director)-Цитата:
    Цитата:

    Переведено и озвучено при поддержке пользователей AlexFilm и HDClub: maxximik, Sk1f7mu, Пак Чой, Дамбо, ghostrider, gelom, Maike, pacienti, irrlicht, r0mka, trava, olsdy, Sportage.

    -

    MediaInfo

    Format : Matroska
    Format version : Version 4 / Version 2
    File size : 10.8 GiB
    Duration : 1h 46mn
    Overall bit rate : 14.5 Mbps
    Movie name : Metegol 2013 @ AlexFilm
    Encoded date : UTC 2014-11-25 20:32:32
    Writing application : mkvmerge v6.6.0 ('The Edge Of The In Between') built on Dec 1 2013 17:55:00
    Writing library : libebml v1.3.0 + libmatroska v1.4.1
    Video
    ID : 1
    Format : AVC
    Format/Info : Advanced Video Codec
    Format profile : High@L4.1
    Format settings, CABAC : Yes
    Format settings, ReFrames : 4 frames
    Codec ID : V_MPEG4/ISO/AVC
    Duration : 1h 46mn
    Bit rate : 11.0 Mbps
    Width : 1 920 pixels
    Height : 800 pixels
    Display aspect ratio : 2.40:1
    Frame rate mode : Constant
    Frame rate : 23.976 fps
    Color space : YUV
    Chroma subsampling : 4:2:0
    Bit depth : 8 bits
    Scan type : Progressive
    Bits/(Pixel*Frame) : 0.298
    Stream size : 8.18 GiB (76%)
    Writing library : x264 core 142 r2479kMod dd79a61
    Encoding settings : cabac=1 / ref=4 / deblock=1:-3:-3 / analyse=0x3:0x113 / me=umh / subme=11 / psy=1 / fade_compensate=0.00 / psy_rd=1.05:0.00 / mixed_ref=1 / me_range=32 / chroma_me=1 / trellis=2 / 8x8dct=1 / cqm=0 / deadzone=21,11 / fast_pskip=0 / chroma_qp_offset=-2 / threads=12 / lookahead_threads=3 / sliced_threads=0 / nr=0 / decimate=0 / interlaced=0 / bluray_compat=0 / constrained_intra=0 / fgo=0 / bframes=10 / b_pyramid=2 / b_adapt=2 / b_bias=0 / direct=3 / weightb=1 / open_gop=0 / weightp=2 / keyint=250 / keyint_min=23 / scenecut=40 / intra_refresh=0 / rc_lookahead=40 / rc=crf / mbtree=0 / crf=16.5000 / qcomp=0.70 / qpmin=0 / qpmax=69 / qpstep=4 / vbv_maxrate=50000 / vbv_bufsize=62500 / crf_max=0.0 / nal_hrd=none / filler=0 / ip_ratio=1.40 / pb_ratio=1.30 / aq=1:1.00
    Language : Spanish
    Default : Yes
    Forced : No
    Audio #1
    ID : 2
    Format : DTS
    Format/Info : Digital Theater Systems
    Mode : 16
    Format settings, Endianness : Big
    Codec ID : A_DTS
    Duration : 1h 46mn
    Bit rate mode : Constant
    Bit rate : 768 Kbps
    Channel(s) : 6 channels
    Channel positions : Front: L C R, Side: L R, LFE
    Sampling rate : 48.0 KHz
    Bit depth : 24 bits
    Compression mode : Lossy
    Stream size : 586 MiB (5%)
    Title : DTS 5.1 AlexFilm
    Language : Russian
    Default : Yes
    Forced : No
    Audio #2
    ID : 3
    Format : DTS
    Format/Info : Digital Theater Systems
    Mode : 16
    Format settings, Endianness : Big
    Codec ID : A_DTS
    Duration : 1h 46mn
    Bit rate mode : Constant
    Bit rate : 768 Kbps
    Channel(s) : 6 channels
    Channel positions : Front: L C R, Side: L R, LFE
    Sampling rate : 48.0 KHz
    Bit depth : 24 bits
    Compression mode : Lossy
    Stream size : 586 MiB (5%)
    Title : DTS 5.1 Argentinean
    Language : Spanish
    Default : No
    Forced : No
    Audio #3
    ID : 4
    Format : DTS
    Format/Info : Digital Theater Systems
    Mode : 16
    Format settings, Endianness : Big
    Codec ID : A_DTS
    Duration : 1h 46mn
    Bit rate mode : Constant
    Bit rate : 768 Kbps
    Channel(s) : 6 channels
    Channel positions : Front: L C R, Side: L R, LFE
    Sampling rate : 48.0 KHz
    Bit depth : 24 bits
    Compression mode : Lossy
    Stream size : 586 MiB (5%)
    Title : DTS 5.1 Castellano
    Language : Spanish
    Default : No
    Forced : No
    Audio #4
    ID : 5
    Format : DTS
    Format/Info : Digital Theater Systems
    Mode : 16
    Format settings, Endianness : Big
    Codec ID : A_DTS
    Duration : 1h 46mn
    Bit rate mode : Constant
    Bit rate : 768 Kbps
    Channel(s) : 6 channels
    Channel positions : Front: L C R, Side: L R, LFE
    Sampling rate : 48.0 KHz
    Bit depth : 24 bits
    Compression mode : Lossy
    Stream size : 586 MiB (5%)
    Title : DTS 5.1 Latino Neutro
    Language : Spanish
    Default : No
    Forced : No
    Audio #5
    ID : 6
    Format : AC-3
    Format/Info : Audio Coding 3
    Format profile : Dolby Digital
    Mode extension : CM (complete main)
    Format settings, Endianness : Big
    Codec ID : A_AC3
    Duration : 1h 46mn
    Bit rate mode : Constant
    Bit rate : 192 Kbps
    Channel(s) : 2 channels
    Channel positions : Front: L R
    Sampling rate : 48.0 KHz
    Bit depth : 16 bits
    Compression mode : Lossy
    Stream size : 146 MiB (1%)
    Title : DD2.0 Comentarios Director (Argentinean)
    Language : Spanish
    Default : No
    Forced : No
    Text #1
    ID : 7
    Format : UTF-8
    Codec ID : S_TEXT/UTF8
    Codec ID/Info : UTF-8 Plain Text
    Title : AlexFilm
    Language : Russian
    Default : No
    Forced : No
    Text #2
    ID : 8
    Format : UTF-8
    Codec ID : S_TEXT/UTF8
    Codec ID/Info : UTF-8 Plain Text
    Title : Castellano
    Language : Spanish
    Default : No
    Forced : No
    Text #3
    ID : 9
    Format : UTF-8
    Codec ID : S_TEXT/UTF8
    Codec ID/Info : UTF-8 Plain Text
    Title : Latino Neutro
    Language : Spanish
    Default : No
    Forced : No
    Text #4
    ID : 10
    Format : UTF-8
    Codec ID : S_TEXT/UTF8
    Codec ID/Info : UTF-8 Plain Text
    Title : Comentarios Director (Argentinean)
    Language : Spanish
    Default : No
    Forced : No
    Menu
    00:00:00.000 : es:01
    00:04:15.713 : es:02
    00:13:07.745 : es:03
    00:22:28.805 : es:04
    00:27:48.083 : es:05
    00:34:20.808 : es:06
    00:39:25.446 : es:07
    00:44:32.711 : es:08
    00:50:44.332 : es:09
    00:55:13.351 : es:10
    00:59:43.580 : es:11
    01:05:22.001 : es:12
    01:07:09.859 : es:13
    01:10:19.632 : es:14
    01:13:17.309 : es:15
    01:19:24.593 : es:16
    01:24:44.496 : es:17
    01:28:25.717 : es:18
    01:34:16.609 : es:19
    01:36:38.417 : es:20

    Скриншоты


    -

  • _________________
    Показать сообщения:    

    Текущее время: Сегодня 22:28

    Часовой пояс: GMT



    Вы не можете начинать темы
    Вы не можете отвечать на сообщения
    Вы не можете редактировать свои сообщения
    Вы не можете удалять свои сообщения
    Вы не можете голосовать в опросах
    Вы не можете прикреплять файлы к сообщениям
    Вы не можете скачивать файлы