Важное объявление!
У Нас Все раздачи мультитрекерные, при нуле пиров в релизах, можете смело вставать на закачку!
 
Автор Сообщение

HUNTER

Стаж:
4 года 4 месяца
Сообщений:
56809

Репутация: 101

[+] [-]
Вне форума [Профиль] [ЛС]

Наследники
Страна: Россия
Жанр: драма
Год выпуска: 2015
Продолжительность: 01:42:43
Перевод: Не требуется
Cубтитры: нет--Режиссер: Владимир Хотиненко-
-
-В ролях: Леонид Бичевин, Александр Балуев, Анатолий Белый, Агриппина Стеклова, Александр Коротков, Алла Юганова, Наталья Курдюбова, Алексей Кирсанов, Сергей Качанов, Артур Мухамадияров...--Описание: Большая часть действия фильма происходит в студии ток-шоу, где политолог, патриот, попдива и другие персонажи во главе с ведущим обсуждают фигуру и наследие преподобного Сергия Радонежского. В разгар записи Ведущий неожиданно узнает, что его программу закрывают. Решив, что терять ему нечего, Ведущий идёт ва-банк и стремится прежде всего «разоблачить» — церковь, власть, своих собеседников… Но эффект оказывается совсем не тот, на который он рассчитывал. В пылу оживленной и даже яростной полемики мы начинаем прозревать подлинного Сергия Радонежского, а в эпизодах истории как в зеркале угадываем проблемы современной России…--Доп. информация: | КиноПоиск | Сэмпл |--Тип релиза: WEB-DL 720p
Контейнер: MKV
Видео: AVC, 1280@960x534 at 25.000 fps, 3967 kbps
Аудио: AC3, 3/2 (L,C,R,l,r) + LFE ch, 48 kHz, 384.00 kbps

Скриншоты

MediaInfo

General
Unique ID : 231658605455523156312474684826752761399 (0xAE47D3133AE7CD9BBEFA5A52ED3DBE37)
Complete name : Наследники.2015.mkv
Format : Matroska
Format version : Version 4 / Version 2
File size : 3.12 GiB
Duration : 1h 42mn
Overall bit rate : 4 353 Kbps
Movie name : Наследники (2015)
Encoded date : UTC 2016-03-07 09:03:31
Writing application : mkvmerge v8.1.0 ('Psychedelic Postcard') 64bit
Writing library : libebml v1.3.1 + libmatroska v1.4.2
Cover : Yes
Attachments : cover.jpg
Video
ID : 1
Format : AVC
Format/Info : Advanced Video Codec
Format profile : Main@L3.1
Format settings, CABAC : No
Format settings, ReFrames : 2 frames
Codec ID : V_MPEG4/ISO/AVC
Duration : 1h 42mn
Bit rate : 3 967 Kbps
Width : 960 pixels
Height : 534 pixels
Display aspect ratio : 2.40:1
Frame rate mode : Constant
Frame rate : 25.000 fps
Color space : YUV
Chroma subsampling : 4:2:0
Bit depth : 8 bits
Scan type : Progressive
Bits/(Pixel*Frame) : 0.310
Stream size : 2.85 GiB (91%)
Title : Наследники (2015)
Language : Russian
Default : Yes
Forced : No
Color range : Limited
Color primaries : BT.709
Transfer characteristics : BT.709
Matrix coefficients : BT.709
Audio
ID : 2
Format : AC-3
Format/Info : Audio Coding 3
Mode extension : CM (complete main)
Format settings, Endianness : Big
Codec ID : A_AC3
Duration : 1h 42mn
Bit rate mode : Constant
Bit rate : 384 Kbps
Channel(s) : 6 channels
Channel positions : Front: L C R, Side: L R, LFE
Sampling rate : 48.0 KHz
Frame rate : 31.250 fps (1536 spf)
Compression mode : Lossy
Stream size : 282 MiB (9%)
Language : Russian
Default : Yes
Forced : No
Menu
00:00:00.000 : en:1
00:05:52.000 : en:2
00:11:28.000 : en:3
00:16:59.000 : en:4
00:22:33.000 : en:5
00:28:28.000 : en:6
00:34:35.000 : en:7
00:40:53.000 : en:8
00:46:30.000 : en:9
00:53:16.000 : en:10
01:00:12.000 : en:11
01:06:41.000 : en:12
01:12:01.000 : en:13
01:17:23.000 : en:14
01:22:54.000 : en:15
01:27:58.000 : en:16
01:34:11.000 : en:17

_________________
Показать сообщения:    

Текущее время: Сегодня 19:48

Часовой пояс: GMT



Вы не можете начинать темы
Вы не можете отвечать на сообщения
Вы не можете редактировать свои сообщения
Вы не можете удалять свои сообщения
Вы не можете голосовать в опросах
Вы не можете прикреплять файлы к сообщениям
Вы не можете скачивать файлы