Важное объявление!
У Нас Все раздачи мультитрекерные, при нуле пиров в релизах, можете смело вставать на закачку!
 
Автор Сообщение

HUNTER

Стаж:
4 года 4 месяца
Сообщений:
56798

Репутация: 101

[+] [-]
Вне форума [Профиль] [ЛС]

Напряги извилины / Get Smart-
Год выпуска: 2008
Страна: США
Жанр: боевик, триллер, комедия, криминал, детектив
Продолжительность: 01:49:58
Перевод: Профессиональный (полное дублирование)
Оригинальная аудиодорожка: English
Субтитры: Russian (Forced), Russian, Ukrainian (Forced), Ukrainian, English-Режиссер: Питер Сигал / Peter Segal
В ролях: Стив Карелл, Энн Хэтэуэй, Дуэйн «Скала» Джонсон, Алан Аркин, Теренс Стэмп, Терри Крюс, Дэвид Кокнер, Джеймс Каан, Билл Мюррэй, Патрик Варбертон
О фильме: Ремейк комедийного сериала 60-х годов. Неуклюжие приёмы секретного агента Максвелла Смарта, взявшегося за обезвреживание группировки «Хаос», стремящейся к власти над миром, ставят операцию под угрозу. Во избежание провала командование прикрепляет к Смарту Агента 99…-CRiSC!
Релиз:
Источник: Get Smart (2008) Blu-ray CEE 1080p VC-1 DD5.1-HDmonSK
Тип релиза: BDRip 720p
Контейнер: MKV
Видео: 1276x720 at 23.976 fps, x264@L4.1, crf, ~8681 kbps avg
Аудио #01: Russian: 48 kHz, AС3, 3/2 (L,C,R,l,r) + LFE ch, ~640.00 kbps avg |Дубляж, Blu-ray CEE|
Аудио #02: Ukrainian: 48 kHz, AС3, 3/2 (L,C,R,l,r) + LFE ch, ~640.00 kbps avg |Дубляж, Blu-ray CEE|
Аудио #03: English: 48 kHz, AС3, 3/2 (L,C,R,l,r) + LFE ch, ~640.00 kbps avg
Семпл-
-

mInfo

Формат : Matroska
Версия формата : Version 2
Размер файла : 8,29 Гбайт
Продолжительность : 1 ч. 49 м.
Общий поток : 10,8 Мбит/сек
Название фильма : Get Smart (2008) - Release for HDCLUB
Дата кодирования : UTC 2014-08-27 17:08:41
Программа кодирования : mkvmerge v5.7.0 ('The Whirlwind') built on Jul 8 2012 20:08:51
Библиотека кодирования : libebml v1.2.3 + libmatroska v1.3.0
Видео
Идентификатор : 1
Формат : AVC
Формат/Информация : Advanced Video Codec
Профиль формата : High@L4.1
Параметр CABAC формата : Да
Параметр ReFrames формата : 9 кадров
Идентификатор кодека : V_MPEG4/ISO/AVC
Продолжительность : 1 ч. 49 м.
Битрейт : 8657 Кбит/сек
Ширина : 1276 пикселей
Высота : 720 пикселей
Соотношение сторон : 16:9
Режим частоты кадров : Постоянный
Частота кадров : 23,976 кадра/сек
Цветовое пространство : YUV
Субдискретизация насыщенности : 4:2:0
Битовая глубина : 8 бит
Тип развёртки : Прогрессивная
Бит/(Пиксели*Кадры) : 0.393
Размер потока : 6,65 Гбайт (80%)
Библиотека кодирования : x264 core 142 r2431 ac76440
Настройки программы : cabac=1 / ref=9 / deblock=1:-3:-3 / analyse=0x3:0x133 / me=tesa / subme=10 / psy=1 / psy_rd=1.05:0.00 / mixed_ref=1 / me_range=24 / chroma_me=1 / trellis=2 / 8x8dct=1 / cqm=0 / deadzone=21,11 / fast_pskip=0 / chroma_qp_offset=-2 / threads=12 / lookahead_threads=2 / sliced_threads=0 / nr=0 / decimate=1 / interlaced=0 / bluray_compat=0 / constrained_intra=0 / bframes=9 / b_pyramid=2 / b_adapt=2 / b_bias=0 / direct=3 / weightb=1 / open_gop=0 / weightp=2 / keyint=240 / keyint_min=22 / scenecut=40 / intra_refresh=0 / rc_lookahead=80 / rc=crf / mbtree=0 / crf=17.0 / qcomp=0.60 / qpmin=0 / qpmax=69 / qpstep=4 / vbv_maxrate=62500 / vbv_bufsize=78125 / crf_max=0.0 / nal_hrd=none / filler=0 / ip_ratio=1.30 / pb_ratio=1.20 / aq=1:1.00
Язык : English
Default : Да
Forced : Нет
Аудио #1
Идентификатор : 2
Формат : AC-3
Формат/Информация : Audio Coding 3
Расширение режима : CM (complete main)
Параметр Endianness формата : Big
Идентификатор кодека : A_AC3
Продолжительность : 1 ч. 49 м.
Вид битрейта : Постоянный
Битрейт : 640 Кбит/сек
Каналы : 6 каналов
Расположение каналов : Front: L C R, Side: L R, LFE
Частота : 48,0 КГц
Битовая глубина : 16 бит
Метод сжатия : С потерями
Размер потока : 503 Мбайт (6%)
Заголовок : |Дубляж, Blu-ray CEE|
Язык : Russian
Default : Да
Forced : Нет
Аудио #2
Идентификатор : 3
Формат : AC-3
Формат/Информация : Audio Coding 3
Расширение режима : CM (complete main)
Параметр Endianness формата : Big
Идентификатор кодека : A_AC3
Продолжительность : 1 ч. 49 м.
Вид битрейта : Постоянный
Битрейт : 640 Кбит/сек
Каналы : 6 каналов
Расположение каналов : Front: L C R, Side: L R, LFE
Частота : 48,0 КГц
Битовая глубина : 16 бит
Метод сжатия : С потерями
Размер потока : 503 Мбайт (6%)
Заголовок : |Дубляж, Blu-ray CEE|
Язык : Ukrainian
Default : Нет
Forced : Нет
Аудио #3
Идентификатор : 4
Формат : AC-3
Формат/Информация : Audio Coding 3
Расширение режима : CM (complete main)
Параметр Endianness формата : Big
Идентификатор кодека : A_AC3
Продолжительность : 1 ч. 49 м.
Вид битрейта : Постоянный
Битрейт : 640 Кбит/сек
Каналы : 6 каналов
Расположение каналов : Front: L C R, Side: L R, LFE
Частота : 48,0 КГц
Битовая глубина : 16 бит
Метод сжатия : С потерями
Размер потока : 503 Мбайт (6%)
Язык : English
Default : Нет
Forced : Нет
Текст #1
Идентификатор : 5
Формат : UTF-8
Идентификатор кодека : S_TEXT/UTF8
Идентификатор кодека/Информация : UTF-8 Plain Text
Заголовок : Forced
Язык : Russian
Default : Да
Forced : Нет
Текст #2
Идентификатор : 6
Формат : UTF-8
Идентификатор кодека : S_TEXT/UTF8
Идентификатор кодека/Информация : UTF-8 Plain Text
Язык : Russian
Default : Нет
Forced : Нет
Текст #3
Идентификатор : 7
Формат : UTF-8
Идентификатор кодека : S_TEXT/UTF8
Идентификатор кодека/Информация : UTF-8 Plain Text
Заголовок : Forced
Язык : Ukrainian
Default : Нет
Forced : Нет
Текст #4
Идентификатор : 8
Формат : UTF-8
Идентификатор кодека : S_TEXT/UTF8
Идентификатор кодека/Информация : UTF-8 Plain Text
Язык : Ukrainian
Default : Нет
Forced : Нет
Текст #5
Идентификатор : 9
Формат : UTF-8
Идентификатор кодека : S_TEXT/UTF8
Идентификатор кодека/Информация : UTF-8 Plain Text
Язык : English
Default : Нет
Forced : Нет
Текст #6
Идентификатор : 10
Формат : UTF-8
Идентификатор кодека : S_TEXT/UTF8
Идентификатор кодека/Информация : UTF-8 Plain Text
Язык : Bulgarian
Default : Нет
Forced : Нет
Текст #7
Идентификатор : 11
Формат : UTF-8
Идентификатор кодека : S_TEXT/UTF8
Идентификатор кодека/Информация : UTF-8 Plain Text
Язык : Czech
Default : Нет
Forced : Нет
Текст #8
Идентификатор : 12
Формат : UTF-8
Идентификатор кодека : S_TEXT/UTF8
Идентификатор кодека/Информация : UTF-8 Plain Text
Язык : Finnish
Default : Нет
Forced : Нет
Текст #9
Идентификатор : 13
Формат : UTF-8
Идентификатор кодека : S_TEXT/UTF8
Идентификатор кодека/Информация : UTF-8 Plain Text
Язык : Greek
Default : Нет
Forced : Нет
Текст #10
Идентификатор : 14
Формат : UTF-8
Идентификатор кодека : S_TEXT/UTF8
Идентификатор кодека/Информация : UTF-8 Plain Text
Язык : Portuguese
Default : Нет
Forced : Нет
Текст #11
Идентификатор : 15
Формат : UTF-8
Идентификатор кодека : S_TEXT/UTF8
Идентификатор кодека/Информация : UTF-8 Plain Text
Язык : Romanian
Default : Нет
Forced : Нет
Текст #12
Идентификатор : 16
Формат : UTF-8
Идентификатор кодека : S_TEXT/UTF8
Идентификатор кодека/Информация : UTF-8 Plain Text
Язык : Swedish
Default : Нет
Forced : Нет
Меню
00:00:00.000 : :00:00:00.000
00:03:57.737 : :00:03:57.737
00:09:12.761 : :00:09:12.761
00:12:28.206 : :00:12:28.206
00:16:19.395 : :00:16:19.395
00:19:08.022 : :00:19:08.022
00:22:25.886 : :00:22:25.886
00:26:00.184 : :00:26:00.184
00:31:25.801 : :00:31:25.801
00:34:28.400 : :00:34:28.400
00:37:19.737 : :00:37:19.737
00:40:01.482 : :00:40:01.482
00:45:07.538 : :00:45:07.538
00:50:10.132 : :00:50:10.132
00:53:32.126 : :00:53:32.126
00:58:12.948 : :00:58:12.948
01:02:42.133 : :01:02:42.133
01:06:37.160 : :01:06:37.160
01:11:27.074 : :01:11:27.074
01:16:14.487 : :01:16:14.487
01:20:27.364 : :01:20:27.364
01:22:34.700 : :01:22:34.700
01:25:56.610 : :01:25:56.610
01:30:43.480 : :01:30:43.480
01:34:13.857 : :01:34:13.857
01:37:37.977 : :01:37:37.977
01:42:22.928 : :01:42:22.928
01:45:16.018 : :01:45:16.018

-
Цитата:
Цитата:

Стою на раздаче до появления 5-6 сидов, после - не возвращаюсь.
Просьба к скачавшим как можно дольше не покидать раздачу!

_________________
Показать сообщения:    

Текущее время: Сегодня 03:56

Часовой пояс: GMT



Вы не можете начинать темы
Вы не можете отвечать на сообщения
Вы не можете редактировать свои сообщения
Вы не можете удалять свои сообщения
Вы не можете голосовать в опросах
Вы не можете прикреплять файлы к сообщениям
Вы не можете скачивать файлы