Важное объявление!
У Нас Все раздачи мультитрекерные, при нуле пиров в релизах, можете смело вставать на закачку!
 
Автор Сообщение

HUNTER

Стаж:
4 года 4 месяца
Сообщений:
56798

Репутация: 101

[+] [-]
Вне форума [Профиль] [ЛС]

Наполеон Динамит
Napoleon Dynamite
--Страна: США
Жанр: комедия
Год выпуска: 2004
Продолжительность: 01:34:54--Перевод: Профессиональный (многоголосый закадровый)
Перевод 2: Профессиональный (двухголосый закадровый) Tycoon
Перевод 3: Авторский (одноголосый закадровый) Антон Карповский
Cубтитры: русские, английские
Оригинальная аудиодорожка: английский--Режиссер: Джаред Хесс / Jared Hess--В ролях: Джон Хидер, Джон Грайз, Аарон Руэлл, Эфрен Рамирез, Дидрих Бадер, Тина Мажорино, Сэнди Мартин, Хэйли Дафф, Тревор Снарр, Шондрелла Эйвери--Описание: Наполеон Динамит — странноватый подросток, живущий в глуши штата Айдахо, школьный изгой во всех смыслах этого слова. Он целыми днями рисует невероятных животных, ругается со старшим братом и старается не попадаться на глаза пронырливому дяде Рико, промышляющему торговлей всем, что только может прийти в голову.
А еще у него есть заветная мечта — стать ниндзя! Жизнь нашего странного героя наполняется приключениями после того, как Наполеон и его заторможенный приятель Педро решают во что бы то ни стало победить на студенческих выборах, где основная соперница — невероятно популярная в школе девушка по имени Саммер Уизли.-- --Тип релиза: BDRip 1080p
Контейнер: MKV
Сэмпл
Видео: MPEG4 Video (H264) | 1916x1040 | 1.85:1 | 23.976 fps | 15.4 Mbps | 0.322b/p
Аудио: Dolby AC3 | 48000Hz | 6ch | 384 Kbps - Профессиональный (многоголосый закадровый)
Аудио 2: Dolby AC3 | 48000Hz | 6ch | 384 Kbps - Профессиональный (двухголосый закадровый) Tycoon
Аудио 3: Dolby AC3 | 48000Hz | stereo | 192 Kbps - Авторский (одноголосый закадровый) Антон Карповский
Аудио 4: DTS | 48000Hz | 6ch | 1509 Kbps - Original
Аудио 5: Dolby AC3 | 48000Hz | stereo | 224 Kbps - Feature Audio Commentary with Director / Writer Jared Hess, Actor Jon Heder and Producer Jeremy Coon
Аудио 6: Dolby AC3 | 48000Hz | stereo | 224 Kbps - Cast Audio Commentary with Aaron Ruell, Efren Ramirez, Jon Gries and Tina Majorino
Формат субтитров: (SRT / PGS)-
-

Скриншоты | MediaInfo

MediaInfo
Код:
General
Unique ID                      : 225869035439620491722725779404097075182 (0xA9ECCB3C21FACB7D9ED7A2B2676837EE)
Complete name                  : E:\TORRENTS\Napoleon.Dinamit.2004.x264.BDRip.1080p_BigGeorge.mkv
Format                         : Matroska
Format version                 : Version 2
File size                      : 12.1 GiB
Duration                       : 1h 34mn
Overall bit rate               : 18.3 Mbps
Encoded date                   : UTC 2012-05-13 19:47:00
Writing application            : mkvmerge v5.4.0 ('Piper') built on Mar 10 2012 13:34:39
Writing library                : libebml v1.2.3 + libmatroska v1.3.0
Video
ID                             : 1
Format                         : AVC
Format/Info                    : Advanced Video Codec
Format profile                 : High@L4.1
Format settings, CABAC         : Yes
Format settings, ReFrames      : 4 frames
Codec ID                       : V_MPEG4/ISO/AVC
Duration                       : 1h 34mn
Bit rate                       : 15.4 Mbps
Width                          : 1 916 pixels
Height                         : 1 040 pixels
Display aspect ratio           : 1.85:1
Frame rate mode                : Constant
Frame rate                     : 23.976 fps
Color space                    : YUV
Chroma subsampling             : 4:2:0
Bit depth                      : 8 bits
Scan type                      : Progressive
Bits/(Pixel*Frame)             : 0.322
Stream size                    : 9.97 GiB (82%)
Writing library                : x264 core 122 r2184 5c85e0a
Encoding settings              : cabac=1 / ref=4 / deblock=1:-2:-2 / analyse=0x3:0x133 / me=umh / subme=11 / psy=1 / psy_rd=1.00:0.00 / mixed_ref=1 / me_range=32 / chroma_me=1 / trellis=2 / 8x8dct=1 / cqm=0 / deadzone=21,11 / fast_pskip=0 / chroma_qp_offset=-2 / threads=6 / sliced_threads=0 / nr=0 / decimate=0 / interlaced=0 / bluray_compat=0 / constrained_intra=0 / bframes=8 / b_pyramid=2 / b_adapt=2 / b_bias=0 / direct=3 / weightb=1 / open_gop=0 / weightp=2 / keyint=250 / keyint_min=23 / scenecut=40 / intra_refresh=0 / rc=2pass / mbtree=0 / bitrate=15375 / ratetol=1.0 / qcomp=0.60 / qpmin=0 / qpmax=69 / qpstep=4 / cplxblur=20.0 / qblur=0.5 / ip_ratio=1.40 / pb_ratio=1.30 / aq=2:1.00
Language                       : English
Default                        : Yes
Forced                         : No
Audio #1
ID                             : 2
Format                         : AC-3
Format/Info                    : Audio Coding 3
Mode extension                 : CM (complete main)
Format settings, Endianness    : Big
Codec ID                       : A_AC3
Duration                       : 1h 34mn
Bit rate mode                  : Constant
Bit rate                       : 384 Kbps
Channel(s)                     : 6 channels
Channel positions              : Front: L C R, Side: L R, LFE
Sampling rate                  : 48.0 KHz
Bit depth                      : 16 bits
Compression mode               : Lossy
Stream size                    : 261 MiB (2%)
Title                          : Профессиональный многоголосый
Language                       : Russian
Default                        : Yes
Forced                         : No
Audio #2
ID                             : 3
Format                         : AC-3
Format/Info                    : Audio Coding 3
Mode extension                 : CM (complete main)
Format settings, Endianness    : Big
Codec ID                       : A_AC3
Duration                       : 1h 34mn
Bit rate mode                  : Constant
Bit rate                       : 384 Kbps
Channel(s)                     : 6 channels
Channel positions              : Front: L C R, Side: L R, LFE
Sampling rate                  : 48.0 KHz
Bit depth                      : 16 bits
Compression mode               : Lossy
Stream size                    : 261 MiB (2%)
Title                          : Профессиональный двухголосый (Tycoon)
Language                       : Russian
Default                        : No
Forced                         : No
Audio #3
ID                             : 4
Format                         : AC-3
Format/Info                    : Audio Coding 3
Mode extension                 : CM (complete main)
Format settings, Endianness    : Big
Codec ID                       : A_AC3
Duration                       : 1h 34mn
Bit rate mode                  : Constant
Bit rate                       : 192 Kbps
Channel(s)                     : 2 channels
Channel positions              : Front: L R
Sampling rate                  : 48.0 KHz
Bit depth                      : 16 bits
Compression mode               : Lossy
Stream size                    : 130 MiB (1%)
Title                          : Авторский одноголосый (Карповский)
Language                       : Russian
Default                        : No
Forced                         : No
Audio #4
ID                             : 5
Format                         : DTS
Format/Info                    : Digital Theater Systems
Mode                           : 16
Format settings, Endianness    : Big
Codec ID                       : A_DTS
Duration                       : 1h 34mn
Bit rate mode                  : Constant
Bit rate                       : 1 509 Kbps
Channel(s)                     : 6 channels
Channel positions              : Front: L C R, Side: L R, LFE
Sampling rate                  : 48.0 KHz
Bit depth                      : 24 bits
Compression mode               : Lossy
Stream size                    : 1.00 GiB (8%)
Title                          : Оригинал
Language                       : English
Default                        : No
Forced                         : No
Audio #5
ID                             : 6
Format                         : AC-3
Format/Info                    : Audio Coding 3
Mode extension                 : CM (complete main)
Format settings, Endianness    : Big
Codec ID                       : A_AC3
Duration                       : 1h 34mn
Bit rate mode                  : Constant
Bit rate                       : 224 Kbps
Channel(s)                     : 2 channels
Channel positions              : Front: L R
Sampling rate                  : 48.0 KHz
Bit depth                      : 16 bits
Compression mode               : Lossy
Stream size                    : 152 MiB (1%)
Title                          : Feature Audio Commentary with Director / Writer Jared Hess, Actor Jon Heder and Producer Jeremy Coon
Language                       : English
Default                        : No
Forced                         : No
Audio #6
ID                             : 7
Format                         : AC-3
Format/Info                    : Audio Coding 3
Mode extension                 : CM (complete main)
Format settings, Endianness    : Big
Codec ID                       : A_AC3
Duration                       : 1h 34mn
Bit rate mode                  : Constant
Bit rate                       : 224 Kbps
Channel(s)                     : 2 channels
Channel positions              : Front: L R
Sampling rate                  : 48.0 KHz
Bit depth                      : 16 bits
Compression mode               : Lossy
Stream size                    : 152 MiB (1%)
Title                          : Cast Audio Commentary with Aaron Ruell, Efren Ramirez, Jon Gries and Tina Majorino
Language                       : English
Default                        : No
Forced                         : No
Text #1
ID                             : 8
Format                         : UTF-8
Codec ID                       : S_TEXT/UTF8
Codec ID/Info                  : UTF-8 Plain Text
Language                       : Russian
Default                        : No
Forced                         : No
Text #2
ID                             : 9
Format                         : PGS
Muxing mode                    : zlib
Codec ID                       : S_HDMV/PGS
Codec ID/Info                  : The same subtitle format used on BDs/HD-DVDs
Language                       : English
Default                        : No
Forced                         : No
Menu
00:00:00.000                   : en:Main Titles
00:03:41.840                   : en:Current Events
00:08:19.990                   : en:New Kid
00:09:35.070                   : en:Home Life
00:11:10.290                   : en:Glamour Shots By Deb
00:12:48.220                   : en:Rex Kwon Do
00:15:49.110                   : en:Happy Hands
00:21:03.130                   : en:Uncle Rico
00:26:21.950                   : en:Date Cake
00:30:41.210                   : en:Business Partners
00:34:14.550                   : en:Napoleon the Artist
00:37:57.480                   : en:Chicken Farmer
00:42:43.890                   : en:School Dance
00:53:07.180                   : en:Pedro for President
01:02:48.590                   : en:Lafawnduh
01:10:45.400                   : en:Wildest Dream
01:15:06.830                   : en:Canidate Speeches
01:20:16.220                   : en:Napoleon Rocks Out
01:23:27.910                   : en:Happy Endings
01:26:54.200                   : en:End Titles / A Wedding



-
-

_________________
Показать сообщения:    

Текущее время: Сегодня 04:20

Часовой пояс: GMT



Вы не можете начинать темы
Вы не можете отвечать на сообщения
Вы не можете редактировать свои сообщения
Вы не можете удалять свои сообщения
Вы не можете голосовать в опросах
Вы не можете прикреплять файлы к сообщениям
Вы не можете скачивать файлы