Важное объявление!
У Нас Все раздачи мультитрекерные, при нуле пиров в релизах, можете смело вставать на закачку!
 
Автор Сообщение

HUNTER

Стаж:
4 года 4 месяца
Сообщений:
56765

Репутация: 101

[+] [-]
Вне форума [Профиль] [ЛС]

Назад в будущее / Back to the Future
Год выпуска: 1985
Страна: США
Жанр: фантастика, приключения
Продолжительность: 01:56:00.881 (166894 frames)
Перевод: Профессиональный (полное дублирование)
Русские субтитры: нет
Режиссер: Роберт Земекис / Robert Zemeckis
В ролях: Майкл Дж. Фокс, Кристофер Ллойд, Лиа Томпсон, Криспин Гловер, Томас Ф. Уилсон, Клодия Уэллс, Марк МакКлюр, Уэнди Джо Спербер, Джордж ДиЧенцо, Фрэнсис Ли МакКейн
Описание: Подросток Марти с помощью машины времени, сооруженной его другом профессором доком Брауном, попадает из 80-х в далекие 50-е. Там он встречается со своими будущими родителями, еще подростками, и другом-профессором, совсем молодым. Он нарушает естественный ход событий прошлого, чем вызывает массу смешных и драматических ситуаций. Собственная смекалка и фантазия профессора помогают преодолеть все препятствия и благополучно вернуться к себе, в свое время.
Качество: BDRip
Формат: AVI
Видео кодек: XviD
Аудио кодек: MP3
Видео: 640x336 (1.90:1), 23.976 fps, XviD build 47 ~761 kbps avg, 0.15 bit/pixel
Audio: 48 kHz, MPEG Layer 3, 2 ch, ~128.00 kbps avg

Медиаинфо

General
Complete name : D:\готово\nazad_v_budushee-1_[torrents.ru]_by_bm11.avi
Format : AVI
Format/Info : Audio Video Interleave
File size : 746 MiB
Duration : 1h 56mn
Overall bit rate : 899 Kbps
Writing application : VirtualDubMod 1.5.10.2 (build 2540/release)
Writing library : VirtualDubMod build 2540/release
Video
Format : MPEG-4 Visual
Format profile : Streaming Video@L1
Format settings, BVOP : Yes
Format settings, QPel : No
Format settings, GMC : No warppoints
Format settings, Matrix : Default
Codec ID : XVID
Codec ID/Hint : XviD
Duration : 1h 56mn
Bit rate : 762 Kbps
Width : 640 pixels
Height : 336 pixels
Display aspect ratio : 1.905
Frame rate : 23.976 fps
Resolution : 24 bits
Colorimetry : 4:2:0
Scan type : Progressive
Bits/(Pixel*Frame) : 0.148
Stream size : 632 MiB (85%)
Writing library : XviD 1.2.0.dev47 (UTC 2006-11-01)
Audio
Format : MPEG Audio
Format version : Version 1
Format profile : Layer 3
Codec ID : 55
Codec ID/Hint : MP3
Duration : 1h 56mn
Bit rate mode : Constant
Bit rate : 128 Kbps
Channel(s) : 2 channels
Sampling rate : 48.0 KHz
Resolution : 16 bits
Stream size : 106 MiB (14%)
Alignment : Aligned on interleaves
Interleave, duration : 42 ms (1.00 video frame)
Interleave, preload duration : 504 ms
Назад в будущее - 2 / Back to the Future - 2
Год выпуска: 1989
Страна: США
Жанр: фантастика, приключения
Продолжительность: 01:47:59.191 (155345 frames)
Перевод: Профессиональный (полное дублирование)
Русские субтитры: нет
Режиссер: Роберт Земекис / Robert Zemeckis
В ролях: Майкл Дж. Фокс, Кристофер Ллойд, Лиа Томпсон, Томас Ф. Уилсон, Элизабет Шу, Джеймс Толкан, Джеффри Вайсман, Кэйси Семашко, Билли Зейн, Дж.Дж. Коэн
Описание: Продолжение фантастической истории о приключениях американского подростка во времени. На этот раз с помощью модернизированной Доком машины времени Марти из 80-х попадает в будущее. Дети Марти в беде, и их надо выручать. Приходится повозиться со злодеем...
Качество: BDRip
Формат: AVI
Видео кодек: XviD
Аудио кодек: MP3
Видео: 640x336 (1.90:1), 23.976 fps, XviD build 47 ~827 kbps avg, 0.16 bit/pixel
Audio: 48 kHz, MPEG Layer 3, 2 ch, ~128.00 kbps avg

Медиаинфо

General
Complete name : D:\готово\nazad_v_budushee-2_[torrents.ru]_by_bm11.avi
Format : AVI
Format/Info : Audio Video Interleave
File size : 745 MiB
Duration : 1h 47mn
Overall bit rate : 965 Kbps
Writing application : VirtualDubMod 1.5.10.2 (build 2540/release)
Writing library : VirtualDubMod build 2540/release
Video
Format : MPEG-4 Visual
Format profile : Streaming Video@L1
Format settings, BVOP : Yes
Format settings, QPel : No
Format settings, GMC : No warppoints
Format settings, Matrix : Default
Codec ID : XVID
Codec ID/Hint : XviD
Duration : 1h 47mn
Bit rate : 828 Kbps
Width : 640 pixels
Height : 336 pixels
Display aspect ratio : 1.905
Frame rate : 23.976 fps
Resolution : 24 bits
Colorimetry : 4:2:0
Scan type : Progressive
Bits/(Pixel*Frame) : 0.161
Stream size : 639 MiB (86%)
Writing library : XviD 1.2.0.dev47 (UTC 2006-11-01)
Audio
Format : MPEG Audio
Format version : Version 1
Format profile : Layer 3
Codec ID : 55
Codec ID/Hint : MP3
Duration : 1h 47mn
Bit rate mode : Constant
Bit rate : 128 Kbps
Channel(s) : 2 channels
Sampling rate : 48.0 KHz
Resolution : 16 bits
Stream size : 98.9 MiB (13%)
Alignment : Aligned on interleaves
Interleave, duration : 42 ms (1.00 video frame)
Interleave, preload duration : 504 ms
Назад в будущее - 3 / Back to the Future - 3
Год выпуска: 1990
Страна: США
Жанр: фантастика, приключения
Продолжительность: 01:58:17.560 (170171 frames)
Перевод: Профессиональный (полное дублирование)
Русские субтитры: нет
Режиссер: Роберт Земекис / Robert Zemeckis
В ролях: Майкл Дж. Фокс, Кристофер Ллойд, Мэри Стинберген, Томас Ф. Уилсон, Лиа Томпсон, Элизабет Шу, Джеймс Толкан, Мэтт Кларк, Даб Тейлор, Гарри Кэри мл.
Описание: Из газет 1985 года Марти узнает, что доктор Браун погиб еще сто лет назад. Несмотря на просьбы Дока не навещать его в XIX веке, Марти вновь хочет вмешаться в ход событий и на машине времени уносится в 1885 год, навстречу Дикому Западу. Это путешествие, как и все прежние, не обходится без опасных приключений, но смелый Марти, рискуя жизнью, предотвращает трагедию в жизни Эммета Брауна. Тот, в свою очередь, без памяти влюбляется в очаровательную незнакомку, которую спасает от гибели, и поездка домой - в будущее - теряет для него всякий смысл...
Качество: BDRip
Формат: AVI
Видео кодек: XviD
Аудио кодек: MP3
Видео: 640x336 (1.90:1), 23.976 fps, XviD build 47 ~744 kbps avg, 0.14 bit/pixel
Audio: 48 kHz, MPEG Layer 3, 2 ch, ~128.00 kbps avg

Медиаинфо

General
Complete name : D:\готово\nazad_v_budushee-3_[torrents.ru]_by_bm11.avi
Format : AVI
Format/Info : Audio Video Interleave
File size : 746 MiB
Duration : 1h 58mn
Overall bit rate : 882 Kbps
Writing application : VirtualDubMod 1.5.10.2 (build 2540/release)
Writing library : VirtualDubMod build 2540/release
Video
Format : MPEG-4 Visual
Format profile : Streaming Video@L1
Format settings, BVOP : Yes
Format settings, QPel : No
Format settings, GMC : No warppoints
Format settings, Matrix : Default
Codec ID : XVID
Codec ID/Hint : XviD
Duration : 1h 58mn
Bit rate : 745 Kbps
Width : 640 pixels
Height : 336 pixels
Display aspect ratio : 1.905
Frame rate : 23.976 fps
Resolution : 24 bits
Colorimetry : 4:2:0
Scan type : Progressive
Bits/(Pixel*Frame) : 0.144
Stream size : 630 MiB (84%)
Writing library : XviD 1.2.0.dev47 (UTC 2006-11-01)
Audio
Format : MPEG Audio
Format version : Version 1
Format profile : Layer 3
Codec ID : 55
Codec ID/Hint : MP3
Duration : 1h 58mn
Bit rate mode : Constant
Bit rate : 128 Kbps
Channel(s) : 2 channels
Sampling rate : 48.0 KHz
Resolution : 16 bits
Stream size : 108 MiB (15%)
Alignment : Aligned on interleaves
Interleave, duration : 42 ms (1.00 video frame)
Interleave, preload duration : 504 ms
Релиз группы:
--

_________________
Показать сообщения:    

Текущее время: Сегодня 19:21

Часовой пояс: GMT



Вы не можете начинать темы
Вы не можете отвечать на сообщения
Вы не можете редактировать свои сообщения
Вы не можете удалять свои сообщения
Вы не можете голосовать в опросах
Вы не можете прикреплять файлы к сообщениям
Вы не можете скачивать файлы