Важное объявление!
У Нас Все раздачи мультитрекерные, при нуле пиров в релизах, можете смело вставать на закачку!
 
Автор Сообщение

HUNTER

Стаж:
4 года 4 месяца
Сообщений:
56848

Репутация: 101

[+] [-]
Вне форума [Профиль] [ЛС]

Набережная туманов / Port of Shadows / Le quai des brumes
Страна: Франция
Жанр: триллер, драма, мелодрама, криминал
Год выпуска: 1938
Продолжительность: 01:32:19
Перевод: Профессиональный (дублированный) - к/с им. М.Горького
+ Профессиональный (многоголосый закадровый) - Film Prestige
+ Профессиональный (многоголосый закадровый) - DVD Магия
Cубтитры: Russian, English, French, German
Оригинальная аудиодорожка: французский-Режиссер: Марсель Карне / Marcel Carne-В ролях: Жан Габен, Мишель Симон, Мишель Морган, Пьер Брассе, Рене Женен, Марсель Перес, Роже Легри, Марсиаль Реб, Женни Бюрне, Эдуард Дельмон-Описание: Солдат колониальных войск Жан приезжает в Гавр, надеясь сесть на корабль и уплыть далеко, далеко - для этого у него есть причины, точно в фильме не указанные. Он знакомится с прекрасной девушкой Нелли и между ними возникает любовь с первого взгляда.
Сильный, сдержанный и немногословный Жан может и хулигана проучить, и вести себя с достоинством и гордостью парижанина. Ему везет - он получает в подарок и гражданскую одежду, и паспорт; корабельный врач предлагает ему место в своей каюте, но пощечины, выданные публично местному молодому бандиту, обусловили печальный конец этой романтической истории.-Релиз:
by delia-Качество видео: BDRip | SbR
Формат видео: MKV
Видео: 986x720 at 24.000 fps (True24p), x264@L4.1, ~8613 kbps avg
Аудио 1: Russian: 48 kHz, AC3, 2/0 (L,R) ch, ~192.00 kbps avg |Дубляж, к/с им. М.Горького|
Аудио 2: Russian: 48 kHz, AC3, 2/0 (L,R) ch, ~192.00 kbps avg |Многоголосый закадровый, Film Prestige|
Аудио 3: Russian: 48 kHz, AC3, 2/0 (L,R) ch, ~192.00 kbps avg |Многоголосый закадровый, DVD Магия|
Аудио 4: French: 48 kHz/16-bit, FLAC 2.0, ~227 kbps avg- -

Доп. инфо

Цитата:
Цитата:

  • Сохранены оригинальные главы как на Blu-ray.
  • За исходник дорожки №1 огромная благодарность Магда.
  • За синхронизацию и редактуру русских субтитров спасибо antikillW

MediaInfo

Код:
Format                      : Matroska
Format version              : Version 4 / Version 2
File size                   : 6.07 GiB
Duration                    : 1h 32mn
Overall bit rate mode       : Variable
Overall bit rate            : 9 420 Kbps
Encoded date                : UTC 2016-08-13 07:32:49
Writing application         : mkvmerge v8.3.0 ('Over the Horizon') 64bit
Writing library             : libebml v1.3.1 + libmatroska v1.4.2
Cover                       : Yes
Attachments                 : cover.jpg
Video
ID                          : 1
Format                      : AVC
Format/Info                 : Advanced Video Codec
Format profile              : High@L4.1
Format settings, CABAC      : Yes
Format settings, ReFrames   : 11 frames
Codec ID                    : V_MPEG4/ISO/AVC
Duration                    : 1h 32mn
Bit rate                    : 8 613 Kbps
Width                       : 986 pixels
Height                      : 720 pixels
Display aspect ratio        : 4:3
Frame rate mode             : Constant
Frame rate                  : 24.000 fps
Color space                 : YUV
Chroma subsampling          : 4:2:0
Bit depth                   : 8 bits
Scan type                   : Progressive
Bits/(Pixel*Frame)          : 0.506
Stream size                 : 5.55 GiB (91%)
Writing library             : x264 core 148 r2705+54 9f484c1 t_mod_Custom [8-bit@all X86_64]
Encoding settings           : cabac=1 / ref=11 / deblock=1:-3:-3 / analyse=0x3:0x133 / me=umh / subme=10 / psy=1 / fade_compensate=0.00 / psy_rd=0.90:0.05 / mixed_ref=1 / me_range=32 / chroma_me=1 / trellis=2 / 8x8dct=1 / cqm=0 / deadzone=21,11 / fast_pskip=0 / chroma_qp_offset=-3 / threads=6 / lookahead_threads=1 / sliced_threads=0 / nr=0 / decimate=1 / interlaced=0 / bluray_compat=0 / constrained_intra=0 / fgo=0 / bframes=8 / b_pyramid=2 / b_adapt=2 / b_bias=0 / direct=3 / weightb=1 / open_gop=0 / weightp=2 / keyint=250 / keyint_min=23 / scenecut=40 / intra_refresh=0 / rc_lookahead=60 / rc=crf / mbtree=0 / crf=17.0000 / qcomp=0.60 / qpmin=0:0:0 / qpmax=69:69:69 / qpstep=4 / vbv_maxrate=62500 / vbv_bufsize=78125 / crf_max=0.0 / nal_hrd=none / filler=0 / ip_ratio=1.30 / pb_ratio=1.20 / aq=1:0.65 / aq-sensitivity=10.00 / aq-factor=1.00:1.00:1.00 / aq2=1:0.60 / aq2-sensitivity=15.00 / aq2-factor=1.00:1.00:1.00 / aq3=1:[0.50:0.50]:[0.50:0.50]:[0.50:0.50]:[0.50:0.50] / aq3-sensitivity=10.00 / aq3-factor=[1.00:1.00]:[1.00:1.00]:[1.00:1.00] / aq3-boundary=192:64:24
Language                    : English
Default                     : Yes
Forced                      : No
Color range                 : Limited
Color primaries             : BT.709
Transfer characteristics    : BT.709
Matrix coefficients         : BT.709
Audio #1
ID                          : 2
Format                      : AC-3
Format/Info                 : Audio Coding 3
Format profile              : Dolby Digital
Mode extension              : CM (complete main)
Format settings, Endianness : Big
Codec ID                    : A_AC3
Duration                    : 1h 32mn
Bit rate mode               : Constant
Bit rate                    : 192 Kbps
Channel(s)                  : 2 channels
Channel positions           : Front: L R
Sampling rate               : 48.0 KHz
Frame rate                  : 31.250 fps (1536 spf)
Compression mode            : Lossy
Stream size                 : 127 MiB (2%)
Title                       : Дубляж, к/с им. М.Горького
Language                    : Russian
Default                     : Yes
Forced                      : No
Audio #2
ID                          : 3
Format                      : AC-3
Format/Info                 : Audio Coding 3
Format profile              : Dolby Digital
Mode extension              : CM (complete main)
Format settings, Endianness : Big
Codec ID                    : A_AC3
Duration                    : 1h 32mn
Bit rate mode               : Constant
Bit rate                    : 192 Kbps
Channel(s)                  : 2 channels
Channel positions           : Front: L R
Sampling rate               : 48.0 KHz
Frame rate                  : 31.250 fps (1536 spf)
Compression mode            : Lossy
Stream size                 : 127 MiB (2%)
Title                       : Многоголосый закадровый, Film Prestige
Language                    : Russian
Default                     : No
Forced                      : No
Audio #3
ID                          : 4
Format                      : AC-3
Format/Info                 : Audio Coding 3
Format profile              : Dolby Digital
Mode extension              : CM (complete main)
Format settings, Endianness : Big
Codec ID                    : A_AC3
Duration                    : 1h 32mn
Bit rate mode               : Constant
Bit rate                    : 192 Kbps
Channel(s)                  : 2 channels
Channel positions           : Front: L R
Sampling rate               : 48.0 KHz
Frame rate                  : 31.250 fps (1536 spf)
Compression mode            : Lossy
Stream size                 : 127 MiB (2%)
Title                       : Многоголосый закадровый, DVD Магия
Language                    : Russian
Default                     : No
Forced                      : No
Audio #4
ID                          : 5
Format                      : FLAC
Format/Info                 : Free Lossless Audio Codec
Codec ID                    : A_FLAC
Duration                    : 1h 32mn
Bit rate mode               : Variable
Bit rate                    : 227 Kbps
Channel(s)                  : 2 channels
Channel positions           : Front: L R
Sampling rate               : 48.0 KHz
Frame rate                  : 11.719 fps (4096 spf)
Bit depth                   : 16 bits
Stream size                 : 150 MiB (2%)
Writing library             : libFLAC 1.2.1 (UTC 2007-09-17)
Language                    : French
Default                     : No
Forced                      : No
Text #1
ID                          : 6
Format                      : UTF-8
Codec ID                    : S_TEXT/UTF8
Codec ID/Info               : UTF-8 Plain Text
Duration                    : 1h 30mn
Bit rate                    : 102 bps
Count of elements           : 1137
Stream size                 : 68.0 KiB (0%)
Language                    : Russian
Default                     : No
Forced                      : No
Text #2
ID                          : 7
Format                      : UTF-8
Codec ID                    : S_TEXT/UTF8
Codec ID/Info               : UTF-8 Plain Text
Duration                    : 1h 31mn
Bit rate                    : 50 bps
Count of elements           : 1177
Stream size                 : 33.8 KiB (0%)
Language                    : English
Default                     : No
Forced                      : No
Text #3
ID                          : 8
Format                      : UTF-8
Codec ID                    : S_TEXT/UTF8
Codec ID/Info               : UTF-8 Plain Text
Duration                    : 1h 30mn
Bit rate                    : 57 bps
Count of elements           : 1248
Stream size                 : 38.2 KiB (0%)
Language                    : French
Default                     : No
Forced                      : No
Text #4
ID                          : 9
Format                      : UTF-8
Codec ID                    : S_TEXT/UTF8
Codec ID/Info               : UTF-8 Plain Text
Duration                    : 1h 28mn
Bit rate                    : 59 bps
Count of elements           : 1147
Stream size                 : 38.3 KiB (0%)
Language                    : German
Default                     : No
Forced                      : No
Menu
00:00:00.000                : en:00:00:00.000
00:07:38.916                : en:00:07:38.916
00:12:52.333                : en:00:12:52.333
00:23:25.541                : en:00:23:25.541
00:28:49.833                : en:00:28:49.833
00:35:26.958                : en:00:35:26.958
00:41:51.875                : en:00:41:51.875
00:48:03.250                : en:00:48:03.250
00:56:37.791                : en:00:56:37.791
01:05:23.125                : en:01:05:23.125
01:20:40.666                : en:01:20:40.666
01:27:55.250                : en:01:27:55.250

Скриншоты


_________________
Показать сообщения:    

Текущее время: Сегодня 02:34

Часовой пояс: GMT



Вы не можете начинать темы
Вы не можете отвечать на сообщения
Вы не можете редактировать свои сообщения
Вы не можете удалять свои сообщения
Вы не можете голосовать в опросах
Вы не можете прикреплять файлы к сообщениям
Вы не можете скачивать файлы
Наши партнеры: интернет магазин Ивановского трикотажа textilla.ru