Важное объявление!
У Нас Все раздачи мультитрекерные, при нуле пиров в релизах, можете смело вставать на закачку!
 
Автор Сообщение

Roxi

Стаж:
4 года 3 месяца
Сообщений:
17
Вне форума [Профиль] [ЛС]

На цепи / Chained
Страна: США
Жанр: триллер
Год выпуска: 2012
Продолжительность: 01:34:17-Перевод: одноголосый закадровый den904
Перевод на русский: Janetta
Cубтитры: нет
Режиссер: Дженнифер Чэмберс Линч / Jennifer Chambers Lynch
В ролях: Винсент Д’Онофрио, Джулия Ормонд, Имон Фэррен, Джина Филипс, Джейк Уэбер, Конор Лесли, Ивэн Бёрд, Эми Матисио-Описание: Восьмилетний паренек Тим и его мать подсаживаются в такси к Бобу — невменяемому водителю, как раз подыскивающего себе новую жертву. После убийства женщины Тим становится марионеткой в руках психа, вынуждающего его хоронить тела. Хватит ли подростку мужества разорвать ужасную связь судьбы, все крепче стягивающую его с убийцей…-РЕЛИЗ ГРУПП: - -Качество видео: HDRip (исходник неизвестен)
Формат видео: AVI
Видео: DivX, 720x304 (2.37:1), 720x304 (2.37:1), 1864 kbps avg, 0.35 bit/pixel
Аудио: Русский, 48 KHz, MPEG Layer 3, 2 ch, 192 kbps-

MediaInfo

Format : AVI
Format/Info : Audio Video Interleave
File size : 1.36 GiB
Duration : 1h 34mn
Overall bit rate : 2 066 Kbps
Writing application : VirtualDubMod 1.5.10.2 (build 2540/release)
Writing library : VirtualDubMod build 2540/release
Video
ID : 0
Format : MPEG-4 Visual
Format settings, BVOP : No
Format settings, QPel : No
Format settings, GMC : No warppoints
Format settings, Matrix : Default (H.263)
Codec ID : DX50
Codec ID/Hint : DivX 5
Duration : 1h 34mn
Bit rate : 1 864 Kbps
Width : 720 pixels
Height : 304 pixels
Display aspect ratio : 2.35:1
Frame rate : 23.976 fps
Color space : YUV
Chroma subsampling : 4:2:0
Bit depth : 8 bits
Scan type : Progressive
Compression mode : Lossy
Bits/(Pixel*Frame) : 0.355
Stream size : 1.23 GiB (90%)
Writing library : DivX 5.1.1 (Maupiti) (UTC 2003-11-19)
Audio
ID : 1
Format : MPEG Audio
Format version : Version 1
Format profile : Layer 3
Mode : Joint stereo
Codec ID : 55
Codec ID/Hint : MP3
Duration : 1h 34mn
Bit rate mode : Constant
Bit rate : 192 Kbps
Channel(s) : 2 channels
Sampling rate : 48.0 KHz
Compression mode : Lossy
Stream size : 129 MiB (9%)
Alignment : Aligned on interleaves
Interleave, duration : 42 ms (1.00 video frame)
Interleave, preload duration : 504 ms

Скриншот c названием фильма

Скриншоты







_________________
Если меня мама учила быть милой,нежной, культурной, это не значит, что я не врежу ногой в глаз, как меня учил папа.
Показать сообщения:    

Текущее время: Сегодня 12:43

Часовой пояс: GMT



Вы не можете начинать темы
Вы не можете отвечать на сообщения
Вы не можете редактировать свои сообщения
Вы не можете удалять свои сообщения
Вы не можете голосовать в опросах
Вы не можете прикреплять файлы к сообщениям
Вы не можете скачивать файлы