Важное объявление!
У Нас Все раздачи мультитрекерные, при нуле пиров в релизах, можете смело вставать на закачку!
 
Автор Сообщение

HUNTER

Стаж:
4 года 4 месяца
Сообщений:
56798

Репутация: 101

[+] [-]
Вне форума [Профиль] [ЛС]

На лекции
Boin | Boin Lecture | ボイン

Год выпуска :2006
Страна : Япония
Жанр: хентай
Продолжительность : 30 мин.
Кол-во эпизодов : 1-2 из 2
Студия : Milky
Режиссёр : Авай Сигэки/Awai Shigeki/粟井重紀-Субтитры : Присутствуют(RUS/ENG - встроенные,отключаемые)
Перевод : Субтитры
Цензура : Отсутствует-Описание : Хотя Дайсуке - относительно новый преподаватель в школе, он быстро стал популярным среди его студентов. Он проводит дополнительный урок, основанный на позволении студентам разыграть и отрепетировать то, что они смогут делать с их карьерой после окончания школы. Некоторые говорят, что этот курс может быть только оправданием, чтобы преподаватель смог провести больше времени с сочными девочками, которые, со своей стороны ничего против этого не имеют...-Качество : DVDRip
Формат : MPEG-4
Видео : H.264, 640x480 (4:3), ~ 1031 kbps, 29.970 fps
Аудио: JAP - Vorbis, 48 kHz, 2ch, ~ 128 kbps-Релиз от: -

Интересные факты

Адаптация хентайной игры компании Crossnet (подразделение Crossnet-Pie).

MediaInfo

General
Format : Matroska
File size : 248 MiB
Duration : 28mn 29s
Overall bit rate : 1 218 Kbps
Movie name : Boin - 1 - Lecture One [Pharaon]
Encoded date : UTC 2009-07-03 13:41:06
Writing application : mkvmerge v2.1.0 ('Another Place To Fall') built on Dec 31 2007 20:13:50
Writing library : libebml v0.7.7 + libmatroska v0.8.1
Video
ID : 1
Format : AVC
Format/Info : Advanced Video Codec
Format profile : [url=mailto:High@L5.1]High@L5.1[/url]
Format settings, CABAC : Yes
Format settings, ReFrames : 2 frames
Muxing mode : Container profile=Unknown@5.1
Codec ID : V_MPEG4/ISO/AVC
Duration : 28mn 29s
Bit rate : 1 066 Kbps
Nominal bit rate : 1 364 Kbps
Width : 640 pixels
Height : 480 pixels
Display aspect ratio : 4:3
Frame rate : 29.970 fps
Color space : YUV
Chroma subsampling : 4:2:0
Bit depth : 8 bits
Scan type : Progressive
Bits/(Pixel*Frame) : 0.116
Stream size : 217 MiB (87%)
Title : h264
Writing library : x264 core 46 svn-504
Encoding settings : cabac=1 / ref=1 / deblock=1:0:0 / analyse=0x3:0x113 / me=hex / subme=5 / brdo=0 / mixed_ref=0 / me_range=16 / chroma_me=1 / trellis=1 / 8x8dct=1 / cqm=0 / chroma_qp_offset=0 / slices=1 / nr=0 / decimate=1 / bframes=2 / b_pyramid=0 / b_adapt=1 / b_bias=0 / direct=2 / wpredb=1 / bime=0 / keyint=250 / keyint_min=25 / scenecut=40 / rc=2pass / bitrate=1364 / ratetol=1.0 / rceq='blurCplx^(1-qComp)' / qcomp=0.60 / qpmin=10 / qpmax=51 / qpstep=4 / cplxblur=20.0 / qblur=0.5 / ip_ratio=1.40 / pb_ratio=1.30
Language : Japanese
Audio
ID : 2
Format : Vorbis
Format settings, Floor : 1
Codec ID : A_VORBIS
Duration : 28mn 29s
Bit rate mode : Constant
Bit rate : 128 Kbps
Channel(s) : 2 channels
Sampling rate : 48.0 KHz
Stream size : 26.1 MiB (11%)
Writing library : libVorbis 1.0.1 (UTC 2003-09-09)
Language : Japanese
Text #1
ID : 3
Format : UTF-8
Codec ID : S_TEXT/UTF8
Codec ID/Info : UTF-8 Plain Text
Title : SRT
Language : Russian
Text #2
ID : 4
Format : ASS
Codec ID : S_TEXT/ASS
Codec ID/Info : Advanced Sub Station Alpha
Title : ASS
Language : English

Список эпизодов

1)Lecture One
2)Lecture Two

Скриншоты:

-

_________________
Показать сообщения:    

Текущее время: Сегодня 23:36

Часовой пояс: GMT



Вы не можете начинать темы
Вы не можете отвечать на сообщения
Вы не можете редактировать свои сообщения
Вы не можете удалять свои сообщения
Вы не можете голосовать в опросах
Вы не можете прикреплять файлы к сообщениям
Вы не можете скачивать файлы