Важное объявление!
У Нас Все раздачи мультитрекерные, при нуле пиров в релизах, можете смело вставать на закачку!
 
Автор Сообщение

HUNTER

Стаж:
4 года 4 месяца
Сообщений:
56719

Репутация: 101

[+] [-]
Вне форума [Профиль] [ЛС]

На исходе дня / The Remains of the Day
Страна: Великобритания, США
Жанр: драма, мелодрама
Год выпуска: 1993
Продолжительность: 02:14:11
Перевод: Профессиональный (многоголосый закадровый)
Cубтитры: русские, английские
Оригинальная аудиодорожка: английский
Режиссер: Джеймс Айвори / James Ivory
В ролях: Энтони Хопкинс, Эмма Томпсон, Джон Хэйкрафт, Кристофер Рив, Кэролайн Хант, Джеймс Фокс, Питер Вон, Паула Джейкобс, Бен Чаплин, Стив Диббен
Описание: Стивенс - образцовый английский дворецкий, который всю жизнь провел в старинном поместье. Он отдал свое сердце беззаветному служению, и нет ничего, что может заставить его изменить долгу. Неожиданно привычное течение дней нарушается, когда в поместье появляется новая экономка, мисс Кентон...

Тип релиза: BDRip 720p (от DON) | sample
Контейнер: MKV
Видео кодек: x264
Видео: AVC 1280x536 (2.40:1), 23.976 fps, ~8800 Kbps, 0.54 bit/pixel
Аудио #1: Russian AC3 6ch 48kHz 640Kbps | MVO
Аудио #2: English AC3 6ch 48kHz 640Kbps | Original
Формат субтитров: softsub (SRT)
Главы: есть

MediaInfo

General
Complete name : E:\...\The.Remains.of.the.Day.1993.720p.BluRay.x264.DD5.1.Rus.Eng-DON.mkv
Format : Matroska
Format version : Version 4 / Version 2
File size : 9.45 GiB
Duration : 2h 14mn
Overall bit rate : 10.1 Mbps
Movie name : The.Remains.of.the.Day.1993.720p.BluRay.x264.DD5.1.Rus.Eng-DON
Encoded date : UTC 2013-11-11 00:12:18
Writing application : mkvmerge v6.2.0 ('Promised Land') built on Apr 28 2013 12:22:01
Writing library : libebml v1.3.0 + libmatroska v1.4.0
Video
ID : 1
Format : AVC
Format/Info : Advanced Video Codec
Format profile : High@L4.1
Format settings, CABAC : Yes
Format settings, ReFrames : 12 frames
Codec ID : V_MPEG4/ISO/AVC
Duration : 2h 14mn
Bit rate : 8 606 Kbps
Width : 1 280 pixels
Height : 536 pixels
Display aspect ratio : 2.40:1
Frame rate mode : Constant
Frame rate : 23.976 fps
Color space : YUV
Chroma subsampling : 4:2:0
Bit depth : 8 bits
Scan type : Progressive
Bits/(Pixel*Frame) : 0.523
Stream size : 8.07 GiB (85%)
Title : DON
Writing library : x264 core 120 r2164+656 2ff844c
Encoding settings : cabac=1 / ref=12 / deblock=1:-3:-3 / analyse=0x3:0x133 / me=umh / subme=10 / psy=1 / fade_compensate=0.00 / psy_rd=0.90:0.02 / mixed_ref=1 / me_range=32 / chroma_me=1 / trellis=2 / 8x8dct=1 / cqm=0 / deadzone=21,11 / fast_pskip=0 / chroma_qp_offset=-3 / threads=3 / sliced_threads=0 / nr=0 / decimate=0 / interlaced=0 / bluray_compat=0 / constrained_intra=0 / fgo=0 / bframes=8 / b_pyramid=2 / b_adapt=2 / b_bias=0 / direct=3 / weightb=1 / open_gop=0 / weightp=2 / keyint=250 / keyint_min=23 / scenecut=40 / intra_refresh=0 / rc=crf / mbtree=0 / crf=16.7 / qcomp=0.60 / qpmin=0 / qpmax=69 / qpstep=4 / ip_ratio=1.40 / pb_ratio=1.30 / aq=3:0.90
Language : English
Default : Yes
Forced : No
Audio #1
ID : 2
Format : AC-3
Format/Info : Audio Coding 3
Mode extension : CM (complete main)
Format settings, Endianness : Big
Codec ID : A_AC3
Duration : 2h 14mn
Bit rate mode : Constant
Bit rate : 640 Kbps
Channel(s) : 6 channels
Channel positions : Front: L C R, Side: L R, LFE
Sampling rate : 48.0 KHz
Bit depth : 16 bits
Compression mode : Lossy
Stream size : 614 MiB (6%)
Title : MVO
Language : Russian
Default : Yes
Forced : No
Audio #2
ID : 3
Format : AC-3
Format/Info : Audio Coding 3
Mode extension : CM (complete main)
Format settings, Endianness : Big
Codec ID : A_AC3
Duration : 2h 14mn
Bit rate mode : Constant
Bit rate : 640 Kbps
Channel(s) : 6 channels
Channel positions : Front: L C R, Side: L R, LFE
Sampling rate : 48.0 KHz
Bit depth : 16 bits
Compression mode : Lossy
Stream size : 614 MiB (6%)
Title : Original
Language : English
Default : No
Forced : No
Text #1
ID : 4
Format : UTF-8
Codec ID : S_TEXT/UTF8
Codec ID/Info : UTF-8 Plain Text
Language : Russian
Default : No
Forced : No
Text #2
ID : 5
Format : UTF-8
Codec ID : S_TEXT/UTF8
Codec ID/Info : UTF-8 Plain Text
Language : English
Default : No
Forced : No
Text #3
ID : 6
Format : UTF-8
Codec ID : S_TEXT/UTF8
Codec ID/Info : UTF-8 Plain Text
Title : SDH
Language : English
Default : No
Forced : No
Menu
00:00:00.000 : :00:00:00.000
00:08:59.539 : :00:08:59.539
00:19:44.141 : :00:19:44.141
00:25:52.509 : :00:25:52.509
00:37:53.104 : :00:37:53.104
00:47:22.423 : :00:47:22.423
00:54:56.460 : :00:54:56.460
01:01:22.095 : :01:01:22.095
01:10:29.100 : :01:10:29.100
01:17:45.703 : :01:17:45.703
01:26:58.922 : :01:26:58.922
01:32:52.400 : :01:32:52.400
01:43:35.292 : :01:43:35.292
01:52:20.776 : :01:52:20.776
01:59:25.325 : :01:59:25.325
02:07:39.569 : :02:07:39.569

Скриншоты и сравнения

source vs DON vs HDTV






_________________
Показать сообщения:    

Текущее время: Сегодня 03:48

Часовой пояс: GMT



Вы не можете начинать темы
Вы не можете отвечать на сообщения
Вы не можете редактировать свои сообщения
Вы не можете удалять свои сообщения
Вы не можете голосовать в опросах
Вы не можете прикреплять файлы к сообщениям
Вы не можете скачивать файлы