Важное объявление!
У Нас Все раздачи мультитрекерные, при нуле пиров в релизах, можете смело вставать на закачку!
 
Автор Сообщение

HUNTER

Стаж:
4 года 4 месяца
Сообщений:
56790

Репутация: 101

[+] [-]
Вне форума [Профиль] [ЛС]

На игре / На игре 2. Новый уровень
Страна: Россия
Жанр: боевик, приключения
Год выпуска: 2009, 2010
Продолжительность: 01:34:06 | 01:26:30-Перевод: Не требуется
Cубтитры: нет
Режиссер: Павел Санаев-В ролях: Сергей Чирков, Марина Петренко, Павел Прилучный, Евгений Харланов, Тихон Жизневский, Нодар Сирадзе, Алексей Бардуков, Агния Дитковските, Виктор Вержбицкий, Борис Тенин-Описание:
На игре: После оглушительной победы на турнире по киберспорту команде геймеров вручают диски с только что разработанной игрой. Запустив игру, каждый из них подвергается воздействию, переводящему их игровые способности в реальные. Теперь и в жизни они лучшие бойцы, стрелки и гонщики.
Данное событие не остается незамеченным. Властные структуры путем шантажа, обмана и подкупа предлагают геймерам «работу». Но как только обман раскрывается, становится понятно, что они не герои, спасающие страну, а банальные наемные убийцы. Встает вопрос: как быть дальше? К тому же дисков у производителя еще много, и появление таких же, как они, профи - это вопрос времени.
Теперь перед геймерами стоит задача найти тираж и... либо уничтожить его, либо, создав и возглавив целую армию геймеров, диктовать свою волю... Команда разделилась. Каждый идет к своей цели.-На игре 2. Новый уровень: После проведения спецоперации, во время которой был убит один из членов команды, у геймеров начинается другая жизнь. Каждый из них понимает - они работают на крупный преступный синдикат.
За дисками теперь охотятся все - и властные структуры, и геймеры. Задача - не допустить, чтобы такой материал попал за границу. Часть команды решает забрать их себе и сформировать собственную подконтрольную армию. Вампир и Рита пытаются им помешать.
Теперь в команде - каждый сам за себя.- by muzvoz-Доп.материалы: нет-Тип релиза: Blu-ray
Контейнер: BDMV-1 ЧАСТЬ
Видео: MPEG-4 AVC Video / 23198 kbps / 1920x1080p / 24 fps / 16:9 / High Profile 4.1
Аудио: DTS-HD Master Audio / 5.1 / 48 kHz / 4067 kbps / 24-bit (DTS Core: 5.1 / 48 kHz / 1509 kbps / 24-bit)
2 ЧАСТЬ
Видео: MPEG-4 AVC Video / 23999 kbps / 1920x1080p / 23,976 fps / 16:9 / High Profile 4.1
Аудио: DTS-HD Master Audio / 5.1 / 48 kHz / 3666 kbps / 24-bit (DTS Core: 5.1 / 48 kHz / 1509 kbps / 24-bit)

MediaInfo

Disc Title: ON_THE_GAME
Disc Size: 40 013 715 532 bytes
Protection: AACS
BD-Java: No
BDInfo: 0.5.2
Notes:
BDINFO HOME AND REPORTS SUBMISSION:
Cinema Squid
http://www.cinemasquid.com/Tools.aspx
INCLUDES FORUMS REPORT FOR:
Unofficial Blu-ray Audio and Video Specifications Thread
http://www.avsforum.com/avs-vb/showthread.php?t=760714
http://forum.blu-ray.com/showthread.php?t=3338
********************
PLAYLIST: 00002.MPLS
********************
<--- BEGIN FORUMS PASTE --->
Код:
Total   Video
Title                                                           Codec   Length  Movie Size      Disc Size       Bitrate Bitrate Main Audio Track                          Secondary Audio Track
-----                                                           ------  ------- --------------  --------------  ------- ------- ------------------                        ---------------------
00002.MPLS                                                      AVC     1:34:06 20 300 568 576  40 013 715 532  28,76   23,20   DTS-HD Master 5.1 4067Kbps (48kHz/24-bit)
Код:
DISC INFO:
Disc Title:     ON_THE_GAME
Disc Size:      40 013 715 532 bytes
Protection:     AACS
BD-Java:        No
BDInfo:         0.5.2
PLAYLIST REPORT:
Name:                   00002.MPLS
Size:                   20 300 568 576 bytes
Length:                 1:34:06 (h:m:s)
Total Bitrate:          28,76 Mbps
Description:
VIDEO:
Codec                   Bitrate             Description
-----                   -------             -----------
MPEG-4 AVC Video        23198 kbps          1080p / 24 fps / 16:9 / High Profile 4.1
AUDIO:
Codec                           Language        Bitrate         Description
-----                           --------        -------         -----------
DTS-HD Master Audio             Russian         4067 kbps       5.1 / 48 kHz / 4067 kbps / 24-bit (DTS Core: 5.1 / 48 kHz / 1509 kbps / 24-bit)
FILES:
Name            Time In         Length          Size            Total Bitrate
----            -------         ------          ----            -------------
00003.M2TS      0:00:00.000     1:34:06.333     20 300 568 576  28 763
CHAPTERS:
Number          Time In         Length          Avg Video Rate  Max 1-Sec Rate  Max 1-Sec Time  Max 5-Sec Rate  Max 5-Sec Time  Max 10Sec Rate  Max 10Sec Time  Avg Frame Size  Max Frame Size  Max Frame Time
------          -------         ------          --------------  --------------  --------------  --------------  --------------  --------------  --------------  --------------  --------------  --------------
1               0:00:00.000     0:08:47.708     23 230 kbps     37 537 kbps     00:00:48.499    28 892 kbps     00:00:46.833    26 090 kbps     00:00:41.666    120 982 bytes   421 174 bytes   00:00:50.500
2               0:08:47.708     0:06:40.291     23 180 kbps     29 345 kbps     00:09:55.166    26 165 kbps     00:11:18.416    25 039 kbps     00:09:47.208    120 727 bytes   422 817 bytes   00:14:47.083
3               0:15:28.000     0:07:32.250     23 202 kbps     30 017 kbps     00:18:27.208    25 672 kbps     00:20:48.291    24 515 kbps     00:20:43.458    120 845 bytes   459 698 bytes   00:19:48.458
4               0:23:00.250     0:08:17.416     23 192 kbps     29 915 kbps     00:29:31.999    26 476 kbps     00:24:53.208    25 283 kbps     00:28:03.541    120 791 bytes   398 371 bytes   00:23:09.583
5               0:31:17.666     0:06:38.000     23 205 kbps     30 244 kbps     00:36:10.375    25 638 kbps     00:36:07.083    24 666 kbps     00:36:02.583    120 857 bytes   422 723 bytes   00:31:36.291
6               0:37:55.666     0:08:19.125     23 187 kbps     31 036 kbps     00:41:15.750    26 408 kbps     00:38:35.541    25 023 kbps     00:38:35.916    120 768 bytes   470 246 bytes   00:38:33.000
7               0:46:14.791     0:07:19.000     23 230 kbps     30 027 kbps     00:51:55.625    26 991 kbps     00:51:54.958    25 135 kbps     00:51:52.083    120 988 bytes   474 157 bytes   00:46:21.583
8               0:53:33.791     0:05:29.958     23 181 kbps     28 919 kbps     00:54:44.625    26 024 kbps     00:56:37.333    24 622 kbps     00:56:33.708    120 732 bytes   382 760 bytes   00:57:52.583
9               0:59:03.750     0:08:17.625     23 202 kbps     30 181 kbps     01:00:36.333    25 557 kbps     01:00:34.791    24 450 kbps     01:05:26.625    120 846 bytes   381 085 bytes   01:03:32.375
10              1:07:21.375     0:07:40.833     23 188 kbps     28 984 kbps     01:11:52.875    25 211 kbps     01:08:16.083    24 194 kbps     01:08:11.875    120 771 bytes   431 056 bytes   01:12:49.833
11              1:15:02.208     0:06:30.250     23 205 kbps     30 532 kbps     01:17:53.833    25 738 kbps     01:17:53.333    24 257 kbps     01:20:40.166    120 860 bytes   421 320 bytes   01:21:25.958
12              1:21:32.458     0:12:33.875     23 181 kbps     30 219 kbps     01:26:13.416    26 347 kbps     01:26:13.458    24 921 kbps     01:25:17.708    120 744 bytes   419 043 bytes   01:26:13.541
STREAM DIAGNOSTICS:
File            PID             Type            Codec           Language                Seconds                 Bitrate                 Bytes           Packets
----            ---             ----            -----           --------                --------------          --------------          -------------   -----
00003.M2TS      4113 (0x1011)   0x1B            AVC                                     5646,250                23 199                  16 373 218 020  89 062 009
00003.M2TS      4352 (0x1100)   0x86            DTS-HD MA       rus (Russian)           5646,250                4 067                   2 870 515 160   16 480 943
<---- END FORUMS PASTE ---->
QUICK SUMMARY:
Disc Title: ON_THE_GAME
Disc Size: 40 013 715 532 bytes
Protection: AACS
BD-Java: No
Playlist: 00002.MPLS
Size: 20 300 568 576 bytes
Length: 1:34:06
Total Bitrate: 28,76 Mbps
Video: MPEG-4 AVC Video / 23198 kbps / 1080p / 24 fps / 16:9 / High Profile 4.1
Audio: Russian / DTS-HD Master Audio / 5.1 / 48 kHz / 4067 kbps / 24-bit (DTS Core: 5.1 / 48 kHz / 1509 kbps / 24-bit)
********************
PLAYLIST: 00003.MPLS
********************
<--- BEGIN FORUMS PASTE --->
Код:
Total   Video
Title                                                           Codec   Length  Movie Size      Disc Size       Bitrate Bitrate Main Audio Track                          Secondary Audio Track
-----                                                           ------  ------- --------------  --------------  ------- ------- ------------------                        ---------------------
00003.MPLS                                                      AVC     1:29:30 19 591 729 152  40 013 715 532  29,18   24,00   DTS-HD Master 5.1 3666Kbps (48kHz/24-bit)
Код:
DISC INFO:
Disc Title:     ON_THE_GAME
Disc Size:      40 013 715 532 bytes
Protection:     AACS
BD-Java:        No
BDInfo:         0.5.2
PLAYLIST REPORT:
Name:                   00003.MPLS
Size:                   19 591 729 152 bytes
Length:                 1:29:30 (h:m:s)
Total Bitrate:          29,18 Mbps
Description:
VIDEO:
Codec                   Bitrate             Description
-----                   -------             -----------
MPEG-4 AVC Video        23999 kbps          1080p / 23,976 fps / 16:9 / High Profile 4.1
AUDIO:
Codec                           Language        Bitrate         Description
-----                           --------        -------         -----------
DTS-HD Master Audio             Russian         3666 kbps       5.1 / 48 kHz / 3666 kbps / 24-bit (DTS Core: 5.1 / 48 kHz / 1509 kbps / 24-bit)
FILES:
Name            Time In         Length          Size            Total Bitrate
----            -------         ------          ----            -------------
00004.M2TS      0:00:00.000     1:29:30.990     19 591 729 152  29 182
CHAPTERS:
Number          Time In         Length          Avg Video Rate  Max 1-Sec Rate  Max 1-Sec Time  Max 5-Sec Rate  Max 5-Sec Time  Max 10Sec Rate  Max 10Sec Time  Avg Frame Size  Max Frame Size  Max Frame Time
------          -------         ------          --------------  --------------  --------------  --------------  --------------  --------------  --------------  --------------  --------------  --------------
1               0:00:00.000     0:08:05.318     24 015 kbps     31 630 kbps     00:03:57.403    27 948 kbps     00:03:57.445    25 980 kbps     00:00:50.925    125 192 bytes   482 949 bytes   00:00:54.220
2               0:08:05.318     0:08:06.152     24 007 kbps     29 766 kbps     00:15:46.362    25 847 kbps     00:14:39.920    25 491 kbps     00:14:36.709    125 163 bytes   462 036 bytes   00:14:39.545
3               0:16:11.470     0:07:05.842     23 999 kbps     31 145 kbps     00:21:48.098    26 449 kbps     00:18:53.757    25 347 kbps     00:19:56.778    125 122 bytes   455 908 bytes   00:18:54.174
4               0:23:17.312     0:07:18.896     23 979 kbps     30 938 kbps     00:26:43.310    27 610 kbps     00:30:19.025    26 002 kbps     00:30:14.020    125 016 bytes   434 721 bytes   00:25:40.580
5               0:30:36.209     0:08:28.966     24 017 kbps     31 106 kbps     00:36:09.917    28 137 kbps     00:36:09.041    25 852 kbps     00:36:04.996    125 213 bytes   427 171 bytes   00:36:09.959
6               0:39:05.176     0:05:45.678     23 993 kbps     30 565 kbps     00:42:03.854    27 490 kbps     00:43:38.532    25 956 kbps     00:43:39.408    125 088 bytes   420 016 bytes   00:43:38.574
7               0:44:50.854     0:08:15.786     23 988 kbps     31 242 kbps     00:46:29.328    26 252 kbps     00:47:29.054    25 254 kbps     00:47:24.049    125 065 bytes   430 755 bytes   00:49:24.461
8               0:53:06.641     0:07:52.263     24 001 kbps     31 269 kbps     00:59:28.898    26 519 kbps     00:59:25.436    25 546 kbps     00:59:20.431    125 132 bytes   480 960 bytes   01:00:53.107
9               1:00:58.905     0:04:13.503     24 011 kbps     29 161 kbps     01:01:19.759    25 352 kbps     01:01:17.924    25 053 kbps     01:01:10.833    125 182 bytes   401 596 bytes   01:02:23.865
10              1:05:12.408     0:09:14.345     24 009 kbps     30 975 kbps     01:07:47.229    27 109 kbps     01:12:14.038    25 683 kbps     01:12:15.080    125 173 bytes   426 385 bytes   01:11:24.571
11              1:14:26.753     0:09:42.081     23 991 kbps     30 669 kbps     01:17:09.875    27 030 kbps     01:23:52.652    25 957 kbps     01:20:15.393    125 080 bytes   458 282 bytes   01:21:38.184
12              1:24:08.835     0:05:22.155     23 962 kbps     28 794 kbps     01:24:42.368    25 275 kbps     01:24:38.323    24 703 kbps     01:24:21.890    124 943 bytes   420 071 bytes   01:24:55.298
STREAM DIAGNOSTICS:
File            PID             Type            Codec           Language                Seconds                 Bitrate                 Bytes           Packets
----            ---             ----            -----           --------                --------------          --------------          -------------   -----
00004.M2TS      4113 (0x1011)   0x1B            AVC                                     5370,824                23 999                  16 112 097 252  87 644 150
00004.M2TS      4352 (0x1100)   0x86            DTS-HD MA       rus (Russian)           5370,824                3 666                   2 461 500 428   14 216 003
<---- END FORUMS PASTE ---->
QUICK SUMMARY:
Disc Title: ON_THE_GAME
Disc Size: 40 013 715 532 bytes
Protection: AACS
BD-Java: No
Playlist: 00003.MPLS
Size: 19 591 729 152 bytes
Length: 1:29:30
Total Bitrate: 29,18 Mbps
Video: MPEG-4 AVC Video / 23999 kbps / 1080p / 23,976 fps / 16:9 / High Profile 4.1
Audio: Russian / DTS-HD Master Audio / 5.1 / 48 kHz / 3666 kbps / 24-bit (DTS Core: 5.1 / 48 kHz / 1509 kbps / 24-bit)
********************
PLAYLIST: 00001.MPLS
********************
<--- BEGIN FORUMS PASTE --->
Код:
Total   Video
Title                                                           Codec   Length  Movie Size      Disc Size       Bitrate Bitrate Main Audio Track                          Secondary Audio Track
-----                                                           ------  ------- --------------  --------------  ------- ------- ------------------                        ---------------------
00001.MPLS                                                      AVC     0:00:45 91 901 952      40 013 715 532  16,19   13,67   LPCM 2.0 1536Kbps (48kHz/16-bit)
Код:
DISC INFO:
Disc Title:     ON_THE_GAME
Disc Size:      40 013 715 532 bytes
Protection:     AACS
BD-Java:        No
BDInfo:         0.5.2
PLAYLIST REPORT:
Name:                   00001.MPLS
Size:                   91 901 952 bytes
Length:                 0:00:45 (h:m:s)
Total Bitrate:          16,19 Mbps
Description:
VIDEO:
Codec                   Bitrate             Description
-----                   -------             -----------
MPEG-4 AVC Video        13672 kbps          1080p / 23,976 fps / 16:9 / High Profile 4.1
AUDIO:
Codec                           Language        Bitrate         Description
-----                           --------        -------         -----------
LPCM Audio                      Russian         1536 kbps       2.0 / 48 kHz / 1536 kbps / 16-bit
FILES:
Name            Time In         Length          Size            Total Bitrate
----            -------         ------          ----            -------------
00001.M2TS      0:00:00.000     0:00:45.420     91 901 952      16 187
CHAPTERS:
Number          Time In         Length          Avg Video Rate  Max 1-Sec Rate  Max 1-Sec Time  Max 5-Sec Rate  Max 5-Sec Time  Max 10Sec Rate  Max 10Sec Time  Avg Frame Size  Max Frame Size  Max Frame Time
------          -------         ------          --------------  --------------  --------------  --------------  --------------  --------------  --------------  --------------  --------------  --------------
1               0:00:00.000     0:00:45.420     13 672 kbps     23 157 kbps     00:00:20.145    18 265 kbps     00:00:07.465    15 703 kbps     00:00:02.001    71 281 bytes    362 137 bytes   00:00:17.017
STREAM DIAGNOSTICS:
File            PID             Type            Codec           Language                Seconds                 Bitrate                 Bytes           Packets
----            ---             ----            -----           --------                --------------          --------------          -------------   -----
00001.M2TS      4113 (0x1011)   0x1B            AVC                                     45,295                  13 710                  77 625 304      422 516
00001.M2TS      4352 (0x1100)   0x80            LPCM            rus (Russian)           45,295                  1 550                   8 773 364       54 606
<---- END FORUMS PASTE ---->
QUICK SUMMARY:
Disc Title: ON_THE_GAME
Disc Size: 40 013 715 532 bytes
Protection: AACS
BD-Java: No
Playlist: 00001.MPLS
Size: 91 901 952 bytes
Length: 0:00:45
Total Bitrate: 16,19 Mbps
Video: MPEG-4 AVC Video / 13672 kbps / 1080p / 23,976 fps / 16:9 / High Profile 4.1
Audio: Russian / LPCM Audio / 2.0 / 48 kHz / 1536 kbps / 16-bit
********************
PLAYLIST: 00000.MPLS
********************
<--- BEGIN FORUMS PASTE --->
Код:
Total   Video
Title                                                           Codec   Length  Movie Size      Disc Size       Bitrate Bitrate Main Audio Track                          Secondary Audio Track
-----                                                           ------  ------- --------------  --------------  ------- ------- ------------------                        ---------------------
00000.MPLS                                                      AVC     0:00:17 15 642 624      40 013 715 532  7,01    5,22    LPCM 2.0 2304Kbps (48kHz/24-bit)
Код:
DISC INFO:
Disc Title:     ON_THE_GAME
Disc Size:      40 013 715 532 bytes
Protection:     AACS
BD-Java:        No
BDInfo:         0.5.2
PLAYLIST REPORT:
Name:                   00000.MPLS
Size:                   15 642 624 bytes
Length:                 0:00:17 (h:m:s)
Total Bitrate:          7,01 Mbps
Description:
VIDEO:
Codec                   Bitrate             Description
-----                   -------             -----------
MPEG-4 AVC Video        5217 kbps           1080p / 23,976 fps / 16:9 / High Profile 4.1
AUDIO:
Codec                           Language        Bitrate         Description
-----                           --------        -------         -----------
LPCM Audio                      Russian         2304 kbps       2.0 / 48 kHz / 2304 kbps / 24-bit
FILES:
Name            Time In         Length          Size            Total Bitrate
----            -------         ------          ----            -------------
00000.M2TS      0:00:00.000     0:00:07.006     1 603 584       1 831
00007.M2TS      0:00:07.006     0:00:10.844     14 039 040      10 357
CHAPTERS:
Number          Time In         Length          Avg Video Rate  Max 1-Sec Rate  Max 1-Sec Time  Max 5-Sec Rate  Max 5-Sec Time  Max 10Sec Rate  Max 10Sec Time  Avg Frame Size  Max Frame Size  Max Frame Time
------          -------         ------          --------------  --------------  --------------  --------------  --------------  --------------  --------------  --------------  --------------  --------------
1               0:00:00.000     0:00:17.851     5 217 kbps      17 007 kbps     00:00:07.257    12 031 kbps     00:00:06.965    7 983 kbps      00:00:06.715    27 199 bytes    304 286 bytes   00:00:08.007
STREAM DIAGNOSTICS:
File            PID             Type            Codec           Language                Seconds                 Bitrate                 Bytes           Packets
----            ---             ----            -----           --------                --------------          --------------          -------------   -----
00000.M2TS      4113 (0x1011)   0x1B            AVC                                     6,882                   1 720                   1 479 975       8 105
00007.M2TS      4113 (0x1011)   0x1B            AVC                                     10,761                  7 554                   10 161 409      55 381
00007.M2TS      4352 (0x1100)   0x80            LPCM            rus (Russian)           10,761                  2 328                   3 132 036       17 352
<---- END FORUMS PASTE ---->
QUICK SUMMARY:
Disc Title: ON_THE_GAME
Disc Size: 40 013 715 532 bytes
Protection: AACS
BD-Java: No
Playlist: 00000.MPLS
Size: 15 642 624 bytes
Length: 0:00:17
Total Bitrate: 7,01 Mbps
Video: MPEG-4 AVC Video / 5217 kbps / 1080p / 23,976 fps / 16:9 / High Profile 4.1
Audio: Russian / LPCM Audio / 2.0 / 48 kHz / 2304 kbps / 24-bit

Скриншоты меню

Скриншоты


_________________
Показать сообщения:    

Текущее время: Сегодня 09:02

Часовой пояс: GMT



Вы не можете начинать темы
Вы не можете отвечать на сообщения
Вы не можете редактировать свои сообщения
Вы не можете удалять свои сообщения
Вы не можете голосовать в опросах
Вы не можете прикреплять файлы к сообщениям
Вы не можете скачивать файлы