Важное объявление!
У Нас Все раздачи мультитрекерные, при нуле пиров в релизах, можете смело вставать на закачку!
 
Автор Сообщение

HUNTER

Стаж:
4 года 4 месяца
Сообщений:
56829

Репутация: 101

[+] [-]
Вне форума [Профиль] [ЛС]

На игре
Страна: Россия
Жанр: боевик, приключения
Год выпуска: 2009
Продолжительность: 01:34:06--Перевод: Не требуется
Cубтитры: русские, английские
Режиссер: Павел Санаев--В ролях:Сергей Чирков (Вампир), Марина Петренко (Рита), Алексей Бардуков (Максим), Агния Дитковските (Лена), Павел Прилучный (Доктор), Тихон Жизневский (Длинный), Евгений Харланов(Комар), Нодар Сирадзе (Ян), Виктор Вержбицкий (Борис Сергеевич), Александр Лыков (Комелев), Игорь Скляр (Зарицын), Сергей Газаров (Дарио Шимич), Борис Тенин (Лебедь), Михаил Трухин (Сколский), Михаил Горевой (Покровский), Алик Гульханов--Описание: После победы на турнире по киберспорту команде геймеров вручают диски с только что разработанной игрой. Запустив игру, каждый из них подвергается воздействию, переводящему их игровые способности в реальные. Некие "авторитетные" структуры путем шантажа, обмана и подкупа предлагают геймерам "работу". Перед геймерами стоит задача либо найти тираж и уничтожить его, либо, создав и возглавив целую армию геймеров, диктовать преступникам свою волю...--Тип релиза: BDRip 1080p
Контейнер: MKV
Видео: MPEG4 Video (H264) 1920x816 24.00fps 10.6 Mbps
Аудио: DTS 48000Hz 6ch 1510 Kbps 24 bits
Формат субтитров: softsub (SRT)

MediaInfo

Format : Matroska
File size : 7.92 GiB
Duration : 1h 34mn
Overall bit rate : 12.1 Mbps
Movie name : На игре (2009) BDrip by nextDred
Encoded date : UTC 2010-12-18 11:32:53
Writing application : mkvmerge v4.3.0 ('Escape from the Island') сборка от Sep 5 2010 10:30:51
Writing library : libebml v1.0.0 + libmatroska v1.0.0
Video
ID : 4
Format : AVC
Format/Info : Advanced Video Codec
Format profile : High@L4.1
Format settings, CABAC : Yes
Format settings, ReFrames : 5 frames
Codec ID : V_MPEG4/ISO/AVC
Duration : 1h 34mn
Bit rate : 10.6 Mbps
Width : 1 920 pixels
Height : 816 pixels
Display aspect ratio : 2.35:1
Frame rate : 24.000 fps
Color space : YUV
Chroma subsampling : 4:2:0
Bit depth : 8 bits
Scan type : Progressive
Bits/(Pixel*Frame) : 0.282
Stream size : 6.77 GiB (85%)
Writing library : x264 core 98 r1649 20cbe10
Encoding settings : cabac=1 / ref=5 / deblock=1:-3:-3 / analyse=0x3:0x113 / me=esa / subme=10 / psy=1 / psy_rd=1.00:0.15 / mixed_ref=1 / me_range=32 / chroma_me=1 / trellis=2 / 8x8dct=1 / cqm=0 / deadzone=21,11 / fast_pskip=1 / chroma_qp_offset=-3 / threads=12 / sliced_threads=0 / nr=0 / decimate=1 / interlaced=0 / constrained_intra=0 / bframes=5 / b_pyramid=2 / b_adapt=2 / b_bias=0 / direct=1 / weightb=1 / weightp=2 / keyint=250 / keyint_min=25 / scenecut=40 / intra_refresh=0 / rc_lookahead=40 / rc=2pass / mbtree=1 / bitrate=10590 / ratetol=1.0 / qcomp=0.60 / qpmin=10 / qpmax=51 / qpstep=4 / cplxblur=20.0 / qblur=0.5 / ip_ratio=1.40 / aq=1:1.00
Language : Russian
Audio
ID : 1
Format : DTS
Format/Info : Digital Theater Systems
Codec ID : A_DTS
Duration : 1h 34mn
Bit rate mode : Constant
Bit rate : 1 510 Kbps
Channel(s) : 6 channels
Channel positions : Front: L C R, Side: L R, LFE
Sampling rate : 48.0 KHz
Bit depth : 24 bits
Stream size : 1 016 MiB (13%)
Language : Russian
Text #1
ID : 2
Format : UTF-8
Codec ID : S_TEXT/UTF8
Codec ID/Info : UTF-8 Plain Text
Title : русские
Language : Russian
Text #2
ID : 3
Format : UTF-8
Codec ID : S_TEXT/UTF8
Codec ID/Info : UTF-8 Plain Text
Title : английские
Language : English
Menu
00:00:00.000 : en:00:00:00.000
00:08:47.708 : en:00:08:47.708
00:15:28.000 : en:00:15:28.000
00:23:00.250 : en:00:23:00.250
00:31:17.667 : en:00:31:17.667
00:37:55.667 : en:00:37:55.667
00:46:14.792 : en:00:46:14.792
00:53:33.792 : en:00:53:33.792
00:59:03.750 : en:00:59:03.750
01:07:21.375 : en:01:07:21.375
01:15:02.208 : en:01:15:02.208
01:21:32.458 : en:01:21:32.458

Скриншоты


-
-На игре 2. Новый уровень
Страна: Россия
Жанр: боевик, приключения
Год выпуска: 2010
Продолжительность: 01:26:30--Перевод: Не требуется
Cубтитры: английские
Режиссер: Павел Санаев--В ролях:Сергей Чирков (Вампир), Марина Петренко (Рита), Алексей Бардуков (Максим), Агния Дитковските (Лена), Павел Прилучный (Доктор), Тихон Жизневский (Длинный), Евгений Харланов(Комар), Нодар Сирадзе (Ян), Виктор Вержбицкий (Борис Сергеевич), Александр Лыков (Комелев), Игорь Скляр (Зарицын), Сергей Газаров (Дарио Шимич), Борис Тенин (Лебедь), Михаил Трухин (Сколский), Михаил Горевой (Покровский),--Описание: После проведения спецоперации, во время которой был убит один из членов команды, у геймеров начинается другая жизнь. Каждый из них понимает — они работают на крупный преступный синдикат.
За дисками теперь охотятся все — и властные структуры, и геймеры. Задача — не допустить, чтобы такой материал попал за границу. Часть команды решает забрать их себе и сформировать собственную подконтрольную армию. Вампир и Рита пытаются им помешать.
Теперь в команде — каждый сам за себя.--Тип релиза: BDRip 1080p
Контейнер: MKV
Видео: MPEG4 Video (H264) 1920x816 23.98fps 11.2 Mbps
Аудио: DTS 48000Hz 6ch 1510 Kbps 24 bits
Формат субтитров: softsub (SRT)

MediaInfo

Format : Matroska
File size : 7.94 GiB
Duration : 1h 29mn
Overall bit rate : 12.7 Mbps
Movie name : На игре 2. Новый уровень (2010) BDRip by nextDred
Encoded date : UTC 2010-12-15 07:45:21
Writing application : mkvmerge v4.3.0 ('Escape from the Island') сборка от Sep 5 2010 10:30:51
Writing library : libebml v1.0.0 + libmatroska v1.0.0
Video
ID : 1
Format : AVC
Format/Info : Advanced Video Codec
Format profile : High@L4.1
Format settings, CABAC : Yes
Format settings, ReFrames : 5 frames
Codec ID : V_MPEG4/ISO/AVC
Duration : 1h 29mn
Bit rate : 11.2 Mbps
Width : 1 920 pixels
Height : 816 pixels
Display aspect ratio : 2.35:1
Frame rate : 23.976 fps
Color space : YUV
Chroma subsampling : 4:2:0
Bit depth : 8 bits
Scan type : Progressive
Bits/(Pixel*Frame) : 0.298
Stream size : 6.84 GiB (86%)
Writing library : x264 core 98 r1649 20cbe10
Encoding settings : cabac=1 / ref=5 / deblock=1:-3:-3 / analyse=0x3:0x113 / me=esa / subme=10 / psy=1 / psy_rd=1.00:0.15 / mixed_ref=1 / me_range=32 / chroma_me=1 / trellis=2 / 8x8dct=1 / cqm=0 / deadzone=21,11 / fast_pskip=1 / chroma_qp_offset=-3 / threads=12 / sliced_threads=0 / nr=0 / decimate=1 / interlaced=0 / constrained_intra=0 / bframes=5 / b_pyramid=2 / b_adapt=2 / b_bias=0 / direct=1 / weightb=1 / weightp=2 / keyint=250 / keyint_min=25 / scenecut=40 / intra_refresh=0 / rc_lookahead=40 / rc=2pass / mbtree=1 / bitrate=11207 / ratetol=1.0 / qcomp=0.60 / qpmin=10 / qpmax=51 / qpstep=4 / cplxblur=20.0 / qblur=0.5 / ip_ratio=1.40 / aq=1:1.00
Language : Russian
Audio
ID : 2
Format : DTS
Format/Info : Digital Theater Systems
Codec ID : A_DTS
Duration : 1h 29mn
Bit rate mode : Constant
Bit rate : 1 510 Kbps
Channel(s) : 6 channels
Channel positions : Front: L C R, Side: L R, LFE
Sampling rate : 48.0 KHz
Bit depth : 24 bits
Stream size : 967 MiB (12%)
Language : Russian
Text
ID : 3
Format : UTF-8
Codec ID : S_TEXT/UTF8
Codec ID/Info : UTF-8 Plain Text
Title : English
Language : English
Menu
00:00:00.000 : en:00:00:00.000
00:08:05.318 : en:00:08:05.318
00:16:11.470 : en:00:16:11.470
00:23:17.313 : en:00:23:17.313
00:30:36.209 : en:00:30:36.209
00:39:05.176 : en:00:39:05.176
00:44:50.855 : en:00:44:50.855
00:53:06.642 : en:00:53:06.642
01:00:58.905 : en:01:00:58.905
01:05:12.408 : en:01:05:12.408
01:14:26.754 : en:01:14:26.754
01:24:08.835 : en:01:24:08.835

Скриншоты


_________________
Показать сообщения:    

Текущее время: Сегодня 15:06

Часовой пояс: GMT



Вы не можете начинать темы
Вы не можете отвечать на сообщения
Вы не можете редактировать свои сообщения
Вы не можете удалять свои сообщения
Вы не можете голосовать в опросах
Вы не можете прикреплять файлы к сообщениям
Вы не можете скачивать файлы