Важное объявление!
У Нас Все раздачи мультитрекерные, при нуле пиров в релизах, можете смело вставать на закачку!
 
Автор Сообщение

HUNTER

Стаж:
4 года 4 месяца
Сообщений:
56822

Репутация: 101

[+] [-]
Вне форума [Профиль] [ЛС]

На закате / Afterglow
Страна: США
Студия: Elysian Dreams, Moonstone Entertainment, Sandcastle 5 Productions
Жанр: Драма, мелодрама
Год выпуска: 1997
Продолжительность: 01:53:57
Перевод 1: Авторский (одноголосый закадровый) - Ю. Сербин
Перевод 2: Студийный (одноголосый закадровый) - Video-Express
Cубтитры: русские, английские
Оригинальная аудиодорожка: английская
Режиссер: Алан Рудольф / Alan Rudolph
В ролях: Ник Нолти, Джули Кристи, Лара Флинн Бойл, Джонни Ли Миллер, Джей Андервуд, Домини Блайт, Ив Корбелл, Алан Фоусет, Мишель-Барбара Пеллетье, Френс Кастель.
Описание: Перед Вами предстанет удивительный квартет влюбленных. Молодая, скучающая жена богатого маклера влюбляется в мастера на все руки. В свою очередь жена мастера, бывшая актриса, влюбляется в маклера. Захватывающая перекрестная любовь двух супружеских пар, вернувшая им утраченное чувство и смысл жизни.

Доп. информация:
Искренняя благодарность за англоязычный BDrip 720p с субтитрами - multiboy
Признательность за оцифровку русских аудиодорог отсылается Fikaloid
Синхронизация звуковых дорожек проведена Arle-kino

Тип релиза: BDRip 720p
Контейнер: MKV
Видео: MPEG-4 AVC, 4851 kbps, 1280x720, 23.976 fps
Аудио 1: Русский (Сербин): AC3, 2ch, 192 Kbps, 48.0 KHz
Аудио 2: Русский (Video-Express): AC3, 2ch, 192 Kbps, 48.0 KHz
Аудио 3: Английский (Оригинал): AC3, 2ch, 640 Kbps, 48.0 KHz
Формат субтитров: softsub (SRT)

MediaInfo

General
Unique ID : 214336406407146713143808098359044804471 (0xA13FB0B948564DC7A74E81FCC8ED0F77)
Complete name : D:\Public\Afterglow.1997.720p.AVO.(Serbin).VO.(VideoExpress).English.mkv
Format : Matroska
Format version : Version 2
File size : 4.67 GiB
Duration : 1h 53mn
Overall bit rate : 5 873 Kbps
Encoded date : UTC 2015-09-19 17:54:53
Writing application : mkvmerge v3.3.0 ('Language') built on Mar 24 2010 14:59:24
Writing library : libebml v0.8.0 + libmatroska v0.9.0
Video
ID : 1
Format : AVC
Format/Info : Advanced Video Codec
Format profile : High@L3.1
Format settings, CABAC : Yes
Format settings, ReFrames : 5 frames
Codec ID : V_MPEG4/ISO/AVC
Duration : 1h 53mn
Bit rate : 4 848 Kbps
Width : 1 280 pixels
Height : 720 pixels
Display aspect ratio : 16:9
Frame rate : 23.976 fps
Color space : YUV
Chroma subsampling : 4:2:0
Bit depth : 8 bits
Scan type : Progressive
Bits/(Pixel*Frame) : 0.219
Stream size : 3.77 GiB (81%)
Writing library : x264 core 129 r2245 bc13772
Encoding settings : cabac=1 / ref=5 / deblock=1:0:0 / analyse=0x3:0x133 / me=umh / subme=7 / psy=1 / psy_rd=1.00:0.00 / mixed_ref=1 / me_range=16 / chroma_me=1 / trellis=1 / 8x8dct=1 / cqm=0 / deadzone=21,11 / fast_pskip=0 / chroma_qp_offset=-2 / threads=18 / lookahead_threads=3 / sliced_threads=0 / nr=0 / decimate=1 / interlaced=0 / bluray_compat=0 / constrained_intra=0 / bframes=3 / b_pyramid=2 / b_adapt=2 / b_bias=0 / direct=3 / weightb=1 / open_gop=0 / weightp=2 / keyint=250 / keyint_min=23 / scenecut=40 / intra_refresh=0 / rc_lookahead=50 / rc=2pass / mbtree=1 / bitrate=4848 / ratetol=1.0 / qcomp=0.60 / qpmin=0 / qpmax=69 / qpstep=4 / cplxblur=20.0 / qblur=0.5 / ip_ratio=1.40 / aq=1:1.00
Language : English
Default : No
Forced : No
Audio #1
ID : 2
Format : AC-3
Format/Info : Audio Coding 3
Mode extension : CM (complete main)
Codec ID : A_AC3
Duration : 1h 53mn
Bit rate mode : Constant
Bit rate : 192 Kbps
Channel(s) : 2 channels
Channel positions : Front: L R
Sampling rate : 48.0 KHz
Bit depth : 16 bits
Compression mode : Lossy
Stream size : 156 MiB (3%)
Title : AVO - Serbin
Language : Russian
Default : Yes
Forced : No
Audio #2
ID : 3
Format : AC-3
Format/Info : Audio Coding 3
Mode extension : CM (complete main)
Codec ID : A_AC3
Duration : 1h 53mn
Bit rate mode : Constant
Bit rate : 192 Kbps
Channel(s) : 2 channels
Channel positions : Front: L R
Sampling rate : 48.0 KHz
Bit depth : 16 bits
Compression mode : Lossy
Stream size : 156 MiB (3%)
Title : VO - VideoExpress
Language : Russian
Default : No
Forced : No
Audio #3
ID : 4
Format : AC-3
Format/Info : Audio Coding 3
Mode extension : CM (complete main)
Codec ID : A_AC3
Duration : 1h 53mn
Bit rate mode : Constant
Bit rate : 640 Kbps
Channel(s) : 2 channels
Channel positions : Front: L R
Sampling rate : 48.0 KHz
Bit depth : 16 bits
Compression mode : Lossy
Stream size : 522 MiB (11%)
Title : Original
Language : English
Default : No
Forced : No
Text #1
ID : 5
Format : UTF-8
Codec ID : S_TEXT/UTF8
Codec ID/Info : UTF-8 Plain Text
Title : SRT
Language : Russian
Default : No
Forced : No
Text #2
ID : 6
Format : UTF-8
Codec ID : S_TEXT/UTF8
Codec ID/Info : UTF-8 Plain Text
Title : SRT
Language : English
Default : No
Forced : No
Menu
00:00:00.000 : en:00:00:00.000
00:07:18.855 : en:00:07:18.855
00:19:45.142 : en:00:19:45.142
00:32:42.210 : en:00:32:42.210
00:41:49.173 : en:00:41:49.173
00:54:30.601 : en:00:54:30.601
01:06:19.642 : en:01:06:19.642
01:14:04.482 : en:01:14:04.482
01:23:32.466 : en:01:23:32.466
01:33:55.880 : en:01:33:55.880
01:44:32.183 : en:01:44:32.183
01:50:33.168 : en:01:50:33.168

Скриншоты


_________________
Показать сообщения:    

Текущее время: Сегодня 21:40

Часовой пояс: GMT



Вы не можете начинать темы
Вы не можете отвечать на сообщения
Вы не можете редактировать свои сообщения
Вы не можете удалять свои сообщения
Вы не можете голосовать в опросах
Вы не можете прикреплять файлы к сообщениям
Вы не можете скачивать файлы