Важное объявление!
У Нас Все раздачи мультитрекерные, при нуле пиров в релизах, можете смело вставать на закачку!
 
Автор Сообщение

HUNTER

Стаж:
4 года 4 месяца
Сообщений:
56829

Репутация: 101

[+] [-]
Вне форума [Профиль] [ЛС]

На гребне / Drift
«Два брата, одна мечта и никаких правил!»
-
Страна: Австралия
Жанр: драма, спорт
Год выпуска: 2013
Продолжительность: 01:53:16-Перевод: Профессиональный (многоголосый, закадровый) - R5
Оригинальная аудиодорожка: English
Cубтитры: English (full + full SDH)
Навигация по главам: присутствует - 12 глав-Режиссер: Бен Нотт / Ben Nott, Морган О’Нил / Morgan O'Neill
В ролях: Майлс Поллард, Завьер Сэмюэл, Сэм Уортингтон, Лесли-Энн Брандт, Робин Малкольм, Шон Кинэн, Стив Бастони, Аарон Гленнэйн, Бен Мортли, Дэвид Боуэрс-Описание: Действие фильма развивается в Австралии 70-х. Главные герои — братья Фишер. Энди и Джимми больше всего на свете любят оседлать волну побольше. Когда Фишеры были маленькими, их мать переехала из Сиднея в небольшой прибрежный городок Маргарет-Ривер, славящийся своим прибоем. На протяжении 12 лет мальчики развивали свои серферские способности в поисках идеальной волны. Но, несмотря на свой талант, свободолюбивый Джимми пытается помочь семье выбраться из долгов и начинает скатываться в криминальный мир. Тогда Энди принимает важное решение. Он увольняется с работы и помогает младшему брату начать бизнес по продаже снаряжения для серфинга.-
Download sample-Качество видео: BDRip 720p | исх. BDRemux 1080p - thx: arxivariys
Формат: MKV-Видео: 1 280x546 (2.35:1), 24.000 fps, H.264 ~4 500 kbps avg, 0.261 bit/pixel
Аудио №1: 48.0 kHz, AC3 Dolby Digital, 3/2 (L,C,R,l,r) + LFE ch, ~448 kbps | Профессиональный (многоголосый, закадровый) - R5
Аудио №2: 48.0 kHz, AC3 Dolby Digital, 3/2 (L,C,R,l,r) + LFE ch, ~640 kbps | English
Субтитры №1: English (full) | *.srt
Субтитры №2: English (full SDH) | *.srt-

MediaInfo

General
Unique ID : 174040646601739154541183695946482677834 (0x82EF0260603F9BB5AEE495B00A5B784A)
Complete name : D:\Фильмы\Рипы\Drift.2013.BDRip 720p.eFK tRuAVC.mkv
Format : Matroska
Format version : Version 4 / Version 2
File size : 4.41 GiB
Duration : 1h 53mn
Overall bit rate : 5 569 Kbps
Movie name : На гребне / Drift (2013) - Release for rutracker
Encoded date : UTC 2015-11-16 22:15:42
Writing application : mkvmerge v7.6.0 ('Garden of Dreams') 64bit built on Feb 8 2015 13:04:34
Writing library : libebml v1.3.1 + libmatroska v1.4.2
Attachements : cover.png
DURATION : 01:51:57.277000000
NUMBER_OF_FRAMES : 1723
NUMBER_OF_BYTES : 56983
_STATISTICS_WRITING_APP : mkvmerge v7.6.0 ('Garden of Dreams') 64bit built on Feb 8 2015 13:04:34
_STATISTICS_WRITING_DATE_UT : 2015-11-16 22:15:42
_STATISTICS_TAGS : BPS DURATION NUMBER_OF_FRAMES NUMBER_OF_BYTES
Video
ID : 1
Format : AVC
Format/Info : Advanced Video Codec
Format profile : High@L4.1
Format settings, CABAC : Yes
Format settings, ReFrames : 10 frames
Codec ID : V_MPEG4/ISO/AVC
Duration : 1h 53mn
Bit rate : 4 371 Kbps
Width : 1 280 pixels
Height : 546 pixels
Display aspect ratio : 2.35:1
Frame rate mode : Constant
Frame rate : 24.000 fps
Color space : YUV
Chroma subsampling : 4:2:0
Bit depth : 8 bits
Scan type : Progressive
Bits/(Pixel*Frame) : 0.261
Stream size : 3.46 GiB (78%)
Title : eFK tRuAVC
Writing library : x264 core 148 r2638kMod 7599210
Encoding settings : cabac=1 / ref=10 / deblock=1:-2:-2 / analyse=0x3:0x113 / me=umh / subme=11 / psy=1 / fade_compensate=0.00 / psy_rd=1.00:0.00 / mixed_ref=1 / me_range=48 / chroma_me=1 / trellis=2 / 8x8dct=1 / cqm=0 / deadzone=21,11 / fast_pskip=0 / chroma_qp_offset=-2 / threads=12 / lookahead_threads=3 / sliced_threads=0 / nr=0 / decimate=1 / interlaced=0 / bluray_compat=0 / constrained_intra=0 / fgo=0 / bframes=16 / b_pyramid=2 / b_adapt=2 / b_bias=0 / direct=3 / weightb=1 / open_gop=0 / weightp=2 / keyint=250 / keyint_min=24 / scenecut=40 / intra_refresh=0 / rc_lookahead=60 / rc=crf / mbtree=0 / crf=17.0000 / qcomp=0.65 / qpmin=0 / qpmax=69 / qpstep=4 / vbv_maxrate=62500 / vbv_bufsize=78125 / crf_max=0.0 / nal_hrd=none / filler=0 / ip_ratio=1.40 / pb_ratio=1.30 / aq=3:0.95
Language : English
Default : Yes
Forced : No
Color range : Limited
Color primaries : BT.709
Transfer characteristics : BT.709
Matrix coefficients : BT.709
DURATION : 01:53:16.042000000
NUMBER_OF_FRAMES : 163105
NUMBER_OF_BYTES : 3804232446
_STATISTICS_WRITING_APP : mkvmerge v7.6.0 ('Garden of Dreams') 64bit built on Feb 8 2015 13:04:34
_STATISTICS_WRITING_DATE_UT : 2015-11-16 22:15:42
_STATISTICS_TAGS : BPS DURATION NUMBER_OF_FRAMES NUMBER_OF_BYTES
Audio #1
ID : 2
Format : AC-3
Format/Info : Audio Coding 3
Mode extension : CM (complete main)
Format settings, Endianness : Big
Codec ID : A_AC3
Duration : 1h 53mn
Bit rate mode : Constant
Bit rate : 448 Kbps
Channel(s) : 6 channels
Channel positions : Front: L C R, Side: L R, LFE
Sampling rate : 48.0 KHz
Compression mode : Lossy
Stream size : 363 MiB (8%)
Title : MVO (R5)
Language : Russian
Default : Yes
Forced : No
Audio #2
ID : 3
Format : AC-3
Format/Info : Audio Coding 3
Mode extension : CM (complete main)
Format settings, Endianness : Big
Codec ID : A_AC3
Duration : 1h 53mn
Bit rate mode : Constant
Bit rate : 640 Kbps
Channel(s) : 6 channels
Channel positions : Front: L C R, Side: L R, LFE
Sampling rate : 48.0 KHz
Compression mode : Lossy
Stream size : 519 MiB (11%)
Language : English
Default : No
Forced : No
Text #1
ID : 4
Format : UTF-8
Codec ID : S_TEXT/UTF8
Codec ID/Info : UTF-8 Plain Text
Title : full
Language : English
Default : No
Forced : No
Text #2
ID : 5
Format : UTF-8
Codec ID : S_TEXT/UTF8
Codec ID/Info : UTF-8 Plain Text
Title : full SDH
Language : English
Default : No
Forced : No
Menu
00:00:00.000 : :Chapter 01
00:10:51.041 : :Chapter 02
00:21:17.250 : :Chapter 03
00:31:29.708 : :Chapter 04
00:42:24.625 : :Chapter 05
00:51:55.208 : :Chapter 06
01:01:15.000 : :Chapter 07
01:13:02.416 : :Chapter 08
01:26:52.416 : :Chapter 09
01:33:44.208 : :Chapter 10
01:41:24.583 : :Chapter 11
01:46:16.916 : :Chapter 12

x264 log

x264 [info]: frame I:1201 Avg QP:15.21 size: 87298
x264 [info]: frame P:37488 Avg QP:16.80 size: 42420
x264 [info]: frame B:124416 Avg QP:18.74 size: 16952
x264 [info]: consecutive B-frames: 2.5% 3.6% 9.0% 25.1% 20.1% 30.7% 4.5% 1.0% 1.0% 0.4% 0.3% 0.3% 0.3% 0.2% 0.1% 0.1% 0.9%
x264 [info]: mb I I16..4: 6.9% 76.4% 16.7%
x264 [info]: mb P I16..4: 1.1% 23.0% 3.1% P16..4: 24.6% 30.6% 10.8% 0.0% 0.0% skip: 6.8%
x264 [info]: mb B I16..4: 0.3% 4.2% 0.6% B16..8: 32.6% 23.5% 4.5% direct: 6.5% skip:27.8% L0:41.4% L1:43.3% BI:15.3%
x264 [info]: 8x8 transform intra:83.7% inter:60.1%
x264 [info]: direct mvs spatial:99.9% temporal:0.1%
x264 [info]: coded y,uvDC,uvAC intra: 87.4% 68.6% 44.4% inter: 31.7% 24.4% 4.0%
x264 [info]: i16 v,h,dc,p: 33% 13% 6% 48%
x264 [info]: i8 v,h,dc,ddl,ddr,vr,hd,vl,hu: 11% 12% 8% 8% 12% 10% 14% 10% 15%
x264 [info]: i4 v,h,dc,ddl,ddr,vr,hd,vl,hu: 25% 9% 9% 6% 11% 9% 12% 8% 12%
x264 [info]: i8c dc,h,v,p: 28% 43% 17% 12%
x264 [info]: Weighted P-Frames: Y:3.2% UV:1.8%
x264 [info]: ref P L0: 48.0% 11.0% 17.5% 6.4% 5.1% 3.6% 3.2% 1.9% 1.6% 1.5% 0.2% 0.0%
x264 [info]: ref B L0: 76.9% 10.9% 4.9% 2.5% 1.7% 1.4% 1.1% 0.5% 0.2%
x264 [info]: ref B L1: 93.9% 6.1%
x264 [info]: kb/s:4478.17
x264 [total]: encoded 163105 frames, 5.77 fps, 4478.17 kb/s, duration 7:51:11.32

Comparison

Source

Encode

_________________
Показать сообщения:    

Текущее время: Сегодня 17:19

Часовой пояс: GMT



Вы не можете начинать темы
Вы не можете отвечать на сообщения
Вы не можете редактировать свои сообщения
Вы не можете удалять свои сообщения
Вы не можете голосовать в опросах
Вы не можете прикреплять файлы к сообщениям
Вы не можете скачивать файлы