Важное объявление!
У Нас Все раздачи мультитрекерные, при нуле пиров в релизах, можете смело вставать на закачку!
 
Автор Сообщение

HUNTER

Стаж:
4 года 4 месяца
Сообщений:
56842

Репутация: 101

[+] [-]
Вне форума [Профиль] [ЛС]

На высокой волне / Hightide-
Страна: Австралия
Студия: FGH, Hemdale Film, SJL
Жанр: Боевик, драма, криминал, триллер
Год выпуска: 1987
Продолжительность: 01:37:13-Перевод: Профессиональный (двухголосый закадровый) НТВ+
Cубтитры: нет
Оригинальная аудиодорожка: английский-Режиссер: Джиллиан Армстронг / Gillian Armstrong
В ролях: Джуди Дэвис, Жан Аделе, Клаудия Карван, Фрэнки Дж. Холден, Джон Клейтон, Колин Фрилз, Тони Скэнлэн, Моника Трапага, Бэрри Раглесс, «Ковбой» Боб Пёртелл...- | Релиз: -Описание: В один из австралийских курортных городков приезжает с концертами рок-группа, в которой на подпевках выступает главная героиня фильма Лилли. Её независимый характер и раскованная манера поведения являются причиной частых конфликтов в коллективе, что, в конце концов, приводит к увольнению. Отсутствие работы, безденежье и поломавшаяся машина заставляют Лилли какое-то время пожить в городке. Там она заводит дружбу с Элли, 14-летней девочкой, увлекающейся серфингом и по необъяснимым причинам кого-то ей напоминающую. Только после внезапной встречи со свекровью она понимает, что Элли — её родная дочь, которую она когда-то бросила, не вынеся гибели мужа…-Семпл: http://sendfile.su/1135531-Тип релиза: HDTV 1080i
Контейнер: TS
Видео: 1920x1080i (16:9), 25.000 fps, AVC, ~5570 Kbps, 0.107 bits/pixel
Аудио 1: Русский, 48.0 KHz, MPEG-1 Audio layer 2, 2 ch, 192 kbps
Аудио 2: English, 48.0 KHz, MPEG-1 Audio layer 2, 2 ch, 192 kbps

MediaInfo

GeneralID : 1 (0x1)Complete name : Hightide 1987 MGMHD 1080i.rus.eng.tsFormat : MPEG-TSFile size : 4.26 GiBDuration : 1h 37mnOverall bit rate mode : VariableOverall bit rate : 6 267 KbpsMaximum Overall bit rate : 35.5 Mbps
VideoID : 4113 (0x1011)Menu ID : 1 (0x1)Format : AVCFormat/Info : Advanced Video CodecFormat profile : Main@L4Format settings, CABAC : YesFormat settings, ReFrames : 4 framesCodec ID : 27Duration : 1h 37mnBit rate : 5 570 KbpsWidth : 1 920 pixelsHeight : 1 080 pixelsDisplay aspect ratio : 16:9Frame rate : 25.000 fpsStandard : ComponentColor space : YUVChroma subsampling : 4:2:0Bit depth : 8 bitsScan type : InterlacedScan order : Top Field FirstBits/(Pixel*Frame) : 0.107Stream size : 3.78 GiB (89%)Color range : LimitedColor primaries : BT.709Transfer characteristics : BT.709Matrix coefficients : BT.709
Audio #1ID : 4352 (0x1100)Menu ID : 1 (0x1)Format : MPEG AudioFormat version : Version 1Format profile : Layer 2Codec ID : 4Duration : 1h 37mnBit rate mode : ConstantBit rate : 192 KbpsChannel(s) : 2 channelsSampling rate : 48.0 KHzCompression mode : LossyStream size : 134 MiB (3%)Language : Russian
Audio #2ID : 4353 (0x1101)Menu ID : 1 (0x1)Format : MPEG AudioFormat version : Version 1Format profile : Layer 2Codec ID : 4Duration : 1h 37mnBit rate mode : ConstantBit rate : 192 KbpsChannel(s) : 2 channelsSampling rate : 48.0 KHzCompression mode : LossyStream size : 134 MiB (3%)Language : English

Скриншоты


_________________
Показать сообщения:    

Текущее время: Сегодня 16:38

Часовой пояс: GMT



Вы не можете начинать темы
Вы не можете отвечать на сообщения
Вы не можете редактировать свои сообщения
Вы не можете удалять свои сообщения
Вы не можете голосовать в опросах
Вы не можете прикреплять файлы к сообщениям
Вы не можете скачивать файлы
Наши партнеры: интернет магазин Ивановского трикотажа textilla.ru