Важное объявление!
У Нас Все раздачи мультитрекерные, при нуле пиров в релизах, можете смело вставать на закачку!
 
Автор Сообщение

HUNTER

Стаж:
4 года 4 месяца
Сообщений:
56734

Репутация: 101

[+] [-]
Вне форума [Профиль] [ЛС]

На берегу / Конец света / On the Beach-
Год выпуска: 1959
Страна: США
Жанр: драма, фантастика
Продолжительность: 02:14:31
Перевод 1: Профессиональный (многоголосый закадровый) DVD Магия
Перевод 2: Профессиональный (двухголосый закадровый) Film Prestige
Оригинальная аудиодорожка: Французская
Cубтитры: Русские (Film Prestige; Юрий Красильников), английские-Режиссер: Стэнли Крамер / Stanley Kramer
В ролях: Грегори Пек, Ава Гарднер, Фред Астер, Энтони Перкинс, Донна Андерсон, Джон Тейт, Харп МакГуайр, Лола Брукс, Кен Уэйн, Гай Доулмен-Описание:
По роману Невила Шюта.
В 1964 году ядерная война стирает с лица земли население северного полушария. Одна американская субмарина находит временную зону безопасности в Австралии.
Командир субмарины Дуайт Тауэрс, семья которого стала жертвой чудовищной войны, встречает здесь женщину, которая пробуждает в нем уже как будто навсегда умершее чувство любви. Его избранница - Мойра Дэвидсон - измучена заботами и всё свободное время проводит с бутылкой бренди. Смогут ли они быть счастливы на фоне угасания последнего оазиса жизни?-За "DVD Магию" спасибо bonzodog
| IMDb | Сэмпл-Качество: BDRip 720p (DON)
Контейнер: MKV
Видео: x264, 1194x720 (1.66:1), 23.976 fps, 12841 kbps (68%)
Аудио 1: Русский AС3, 2.0, 48 kHz, 192 kbps — DVD Магия
Аудио 2: Русский AС3, 2.0, 48 kHz, 192 kbps — Film Prestige
Аудио 3: Английский FLAC 2.0, 48 kHz, 389 kbps
Формат субтитров: softsub (SRT)

Скриншоты

Source vs Encode





-

MI

nfo
Release info
RELEASE NAME..: On.the.Beach.1959.720p.BluRay.FLAC2.0.x264-DON
RELEASE SIZE..: 12.4 GiB
RUNTIME.......: 02:14:32
VIDEO CODEC...: x264, CRF=16.8, L4.1
FRAMERATE.....: 23.976 fps
BITRATE.......: 12841 kbps
RESOLUTION....: 1194x720p
AUDIO.........: English FLAC 2.0 @ 389 kbps
SUBTITLES.....: English
CHAPTERS......: Included
SOURCE........: On the Beach 1959 1080p Blu-ray AVC DTS-HD MA 2.0-PCH
RELEASE DATE..: 14/09/2014
ENCODER.......: MrDelRey
x264log
x264 [info]: frame I:902 Avg QP:17.56 size:113718
x264 [info]: frame P:33305 Avg QP:18.52 size: 76670
x264 [info]: frame B:159311 Avg QP:19.31 size: 64655
encoded 193518 frames, 4.708 fps, 12841.92 kb/s
Notes
Used --sar 1790/1791 to correct AR error.
General
Unique ID : 180717988708599763299138820799166310679 (0x87F504C29922B0E386FDB021656A6917)
Complete name :On.the.Beach.1959.720p.BluRay.x264-DON.mkv
Format : Matroska
Format version : Version 2
File size : 12.8 GiB
Duration : 2h 14mn
Overall bit rate mode : Variable
Overall bit rate : 13.6 Mbps
Movie name : On the Beach / На берегу (1959) - RuTracker
Encoded date : UTC 2014-10-27 18:18:23
Writing application : mkvmerge v7.0.0 ('Where We Going') 64bit built on Jun 9 2014 15:16:27
Writing library : libebml v1.3.0 + libmatroska v1.4.1
Attachements : cover.jpg
Video
ID : 1
Format : AVC
Format/Info : Advanced Video Codec
Format profile : High@L4.1
Format settings, CABAC : Yes
Format settings, ReFrames : 9 frames
Codec ID : V_MPEG4/ISO/AVC
Duration : 2h 14mn
Width : 1 194 pixels
Height : 720 pixels
Display aspect ratio : 1.658
Original display aspect ratio : 1.657
Frame rate mode : Constant
Frame rate : 23.976 fps
Color space : YUV
Chroma subsampling : 4:2:0
Bit depth : 8 bits
Scan type : Progressive
Title : On.the.Beach.1959.720p.BluRay.FLAC2.0.x264-DON
Writing library : x264 core 142 r2431+42 c69a006 tMod [8-bit@4:2:0 X86_64]
Encoding settings : cabac=1 / ref=9 / deblock=1:-3:-3 / analyse=0x3:0x113 / me=umh / subme=10 / psy=1 / fade_compensate=0.00 / psy_rd=1.05:0.00 / mixed_ref=1 / me_range=32 / chroma_me=1 / trellis=2 / 8x8dct=1 / cqm=0 / deadzone=21,11 / fast_pskip=0 / chroma_qp_offset=-2 / threads=6 / lookahead_threads=1 / sliced_threads=0 / nr=0 / decimate=0 / interlaced=0 / bluray_compat=0 / constrained_intra=0 / fgo=0 / bframes=10 / b_pyramid=2 / b_adapt=2 / b_bias=0 / direct=3 / weightb=1 / open_gop=0 / weightp=2 / keyint=250 / keyint_min=23 / scenecut=40 / intra_refresh=0 / rc_lookahead=60 / rc=crf / mbtree=0 / crf=16.8000 / qcomp=0.60 / qpmin=0:0:0 / qpmax=69:69:69 / qpstep=4 / vbv_maxrate=62500 / vbv_bufsize=78125 / crf_max=0.0 / nal_hrd=none / filler=0 / ip_ratio=1.20 / pb_ratio=1.10 / aq=4:0.70 / aq-sensitivity=10.00 / aq-factor=1.00:1.00:1.00 / aq2=0 / aq3=0
Language : English
Default : Yes
Forced : No
Audio #1
ID : 2
Format : AC-3
Format/Info : Audio Coding 3
Mode extension : CM (complete main)
Format settings, Endianness : Big
Codec ID : A_AC3
Duration : 2h 14mn
Bit rate mode : Constant
Bit rate : 192 Kbps
Channel(s) : 2 channels
Channel positions : Front: L R
Sampling rate : 48.0 KHz
Bit depth : 16 bits
Compression mode : Lossy
Stream size : 185 MiB (1%)
Title : MVO – DVD Магия
Language : Russian
Default : Yes
Forced : No
Audio #2
ID : 3
Format : AC-3
Format/Info : Audio Coding 3
Mode extension : CM (complete main)
Format settings, Endianness : Big
Codec ID : A_AC3
Duration : 2h 14mn
Bit rate mode : Constant
Bit rate : 192 Kbps
Channel(s) : 2 channels
Channel positions : Front: L R
Sampling rate : 48.0 KHz
Bit depth : 16 bits
Compression mode : Lossy
Stream size : 185 MiB (1%)
Title : DVO – Film Prestige
Language : Russian
Default : No
Forced : No
Audio #3
ID : 4
Format : FLAC
Format/Info : Free Lossless Audio Codec
Codec ID : A_FLAC
Duration : 2h 14mn
Bit rate mode : Variable
Channel(s) : 2 channels
Sampling rate : 48.0 KHz
Bit depth : 16 bits
Title : Original
Writing library : libFLAC 1.3.0 (UTC 2013-05-26)
Language : English
Default : No
Forced : No
Text #1
ID : 5
Format : UTF-8
Codec ID : S_TEXT/UTF8
Codec ID/Info : UTF-8 Plain Text
Title : Film Prestige
Language : Russian
Default : No
Forced : No
Text #2
ID : 6
Format : UTF-8
Codec ID : S_TEXT/UTF8
Codec ID/Info : UTF-8 Plain Text
Title : Ю. Красильников
Language : Russian
Default : No
Forced : No
Text #3
ID : 7
Format : UTF-8
Codec ID : S_TEXT/UTF8
Codec ID/Info : UTF-8 Plain Text
Language : English
Default : No
Forced : No
Menu
00:00:00.000 : en:Chapter 1
00:13:42.405 : en:Chapter 2
00:36:53.294 : en:Chapter 3
00:56:27.634 : en:Chapter 4
01:14:31.801 : en:Chapter 5
01:29:42.794 : en:Chapter 6
01:38:45.169 : en:Chapter 7
01:53:01.316 : en:Chapter 8

_________________
Показать сообщения:    

Текущее время: Сегодня 09:49

Часовой пояс: GMT



Вы не можете начинать темы
Вы не можете отвечать на сообщения
Вы не можете редактировать свои сообщения
Вы не можете удалять свои сообщения
Вы не можете голосовать в опросах
Вы не можете прикреплять файлы к сообщениям
Вы не можете скачивать файлы