Важное объявление!
У Нас Все раздачи мультитрекерные, при нуле пиров в релизах, можете смело вставать на закачку!
 
Автор Сообщение

HUNTER

Стаж:
4 года 4 месяца
Сообщений:
56848

Репутация: 101

[+] [-]
Вне форума [Профиль] [ЛС]

Мэри Поппинс / Mary Poppins«It's supercalifragilisticexpialidocious!»-
Страна: США
Жанр: мюзикл, фэнтези, комедия, семейный
Год выпуска: 1964
Продолжительность: 02:19:06-Перевод №1: Профессиональный (полное дублирование) Blu-ray
Перевод №2: Профессиональный (многоголосый закадровый)
Перевод №3: Профессиональный (многоголосый закадровый) Ukrainian Новий канал
Оригинальная аудиодорога №1: English
Оригинальная аудиодорога №2: English Commentary With Julie Andrews, Karen Dotrice, Richard Sherman, Robert Sherman & Dick Van Dyke
Cубтитры: Russian (full), English (full+full SDH)
Навигация по главам: Присутствует-Режиссер: Роберт Стивенсон / Robert Stevenson
В ролях: Джули Эндрюс, Дик Ван Дайк, Дэвид Томлинсон, Глинис Джонс, Гермиона Бадделей, Рита Шоу, Карен Дотрис, Мэттью Гарбер, Эльза Ланчестер, Артур Тричер-Описание: Семейство Бенкс озабоченно поисками няни для своих детей. И как это бывает только в сказке, она появилась прямо из воздуха, прекрасная, ни на кого не похожая. Как раз такая, какую мечтали бы иметь в своем доме всякие любящие родители.
У неё не просто цветущий вид. Она не просто лучше всех умеет готовить, ходить по магазинам, одеваться, танцевать и воспитывать детей. Это всё лишь элементы, лишь составляющие. Нет, тут нечто большее — она именно совершенна, именно лишена недостатков, ибо она — сказочная. Как же не влюбиться в такую…-
Download sample-Качество видео: BDRip 1080p | исх. Мэри Поппинс / Mary Poppins (1964) Blu-ray EUR 1080p AVC DD5.1 - HDCLUB
Формат видео: MKV-Видео: 1792x1080 at 23.976 fps, x264@L4.1, crf, ~13100 kbps avg
Аудио №1: 48 kHz/16-bit, AC3, 3/2 (L,C,R,l,r) + LFE ch, ~640.00 kbps avg | Профессиональный (полное дублирование) Blu-ray
Аудио №2: 48 kHz/16-bit, AC3, 3/2 (L,C,R,l,r) + LFE ch, ~384.00 kbps avg | Профессиональный (многоголосый закадровый)
Аудио №3: 48 kHz, AC3 Dolby Digital, 2/0 (L,R) ch, ~192 kbps | Профессиональный (многоголосый закадровый) Ukrainian Новий канал
Аудио №4: 48 kHz/24-bit, DTS, 3/2 (L,C,R,l,r) + LFE ch, ~1509.00 kbps avg | English
Аудио №5: 48 kHz, AC3 Dolby Digital, 2/0 (L,R) ch, ~192 kbps | English Commentary With Julie Andrews, Karen Dotrice, Richard Sherman, Robert Sherman & Dick Van Dyke-

Notes

Сохранены оригинальные чаптеры как на Blu-Ray.
by N1NT3NDO

MediaInfo

General
Unique ID : 192105043129073608515699906019693429912 (0x908615E38670E866BF757A121B280498)
Complete name : D:\Фильмы\Mary.Poppins.1964.1080p.Blu-Ray.AC3.DTS.HDCLUB.mkv
Format : Matroska
Format version : Version 2
File size : 15.6 GiB
Duration : 2h 19mn
Overall bit rate : 16.0 Mbps
Movie name : Мэри Поппинс / Mary Poppins (1964)
Encoded date : UTC 2014-03-10 13:56:30
Writing application : mkvmerge v5.8.0 ('No Sleep / Pillow') built on Sep 2 2012 15:37:04
Writing library : libebml v1.2.3 + libmatroska v1.3.0
Attachment : Yes
Video
ID : 1
Format : AVC
Format/Info : Advanced Video Codec
Format profile : High@L4.1
Format settings, CABAC : Yes
Format settings, ReFrames : 4 frames
Codec ID : V_MPEG4/ISO/AVC
Duration : 2h 19mn
Bit rate : 12.8 Mbps
Width : 1 792 pixels
Height : 1 080 pixels
Display aspect ratio : 1.659
Frame rate mode : Constant
Frame rate : 23.976 fps
Color space : YUV
Chroma subsampling : 4:2:0
Bit depth : 8 bits
Scan type : Progressive
Bits/(Pixel*Frame) : 0.276
Stream size : 12.4 GiB (80%)
Title : Release for HDCLUB [by N1NT3NDO]
Writing library : x264 core 142 r2389+41 02cb608 tMod [8-bit@4:2:0 X86_64]
Encoding settings : cabac=1 / ref=4 / deblock=1:-3:-3 / analyse=0x3:0x133 / me=umh / subme=11 / psy=1 / fade_compensate=0.00 / psy_rd=1.05:0.00 / mixed_ref=1 / me_range=32 / chroma_me=1 / trellis=2 / 8x8dct=1 / cqm=0 / deadzone=21,11 / fast_pskip=0 / chroma_qp_offset=-2 / threads=12 / lookahead_threads=3 / sliced_threads=0 / nr=0 / decimate=1 / interlaced=0 / bluray_compat=0 / constrained_intra=0 / fgo=0 / bframes=10 / b_pyramid=2 / b_adapt=2 / b_bias=0 / direct=1 / weightb=1 / open_gop=0 / weightp=2 / keyint=240 / keyint_min=23 / scenecut=40 / intra_refresh=0 / rc_lookahead=80 / rc=crf / mbtree=0 / crf=21.0000 / qcomp=0.60 / qpmin=0:0:0 / qpmax=69:69:69 / qpstep=4 / vbv_maxrate=50000 / vbv_bufsize=62500 / crf_max=0.0 / nal_hrd=none / filler=0 / ip_ratio=1.40 / pb_ratio=1.30 / aq=2:1.00 / aq-sensitivity=10.00 / aq-factor=1.00:1.00:1.00 / aq2=0 / aq3=0
Language : English
Default : Yes
Forced : No
Audio #1
ID : 2
Format : AC-3
Format/Info : Audio Coding 3
Mode extension : CM (complete main)
Format settings, Endianness : Big
Codec ID : A_AC3
Duration : 2h 19mn
Bit rate mode : Constant
Bit rate : 640 Kbps
Channel count : 6 channels
Channel positions : Front: L C R, Side: L R, LFE
Sampling rate : 48.0 KHz
Bit depth : 16 bits
Compression mode : Lossy
Stream size : 637 MiB (4%)
Title : Дубляж, Blu-ray [48 kHz/16-bit, AC3, 3/2 (L,C,R,l,r) + LFE ch, ~640.00 kbps avg]
Language : Russian
Default : Yes
Forced : No
Audio #2
ID : 3
Format : AC-3
Format/Info : Audio Coding 3
Mode extension : CM (complete main)
Format settings, Endianness : Big
Codec ID : A_AC3
Duration : 2h 19mn
Bit rate mode : Constant
Bit rate : 384 Kbps
Channel count : 6 channels
Channel positions : Front: L C R, Side: L R, LFE
Sampling rate : 48.0 KHz
Bit depth : 16 bits
Compression mode : Lossy
Stream size : 382 MiB (2%)
Title : Многоголосый закадровый [48 kHz/16-bit, AC3, 3/2 (L,C,R,l,r) + LFE ch, ~384.00 kbps avg]
Language : Russian
Default : No
Forced : No
Audio #3
ID : 4
Format : AC-3
Format/Info : Audio Coding 3
Mode extension : CM (complete main)
Format settings, Endianness : Big
Codec ID : A_AC3
Duration : 2h 19mn
Bit rate mode : Constant
Bit rate : 192 Kbps
Channel count : 2 channels
Channel positions : Front: L R
Sampling rate : 48.0 KHz
Bit depth : 16 bits
Compression mode : Lossy
Stream size : 191 MiB (1%)
Title : Многоголосый закадровый, Новий канал [48 kHz/16-bit, AC3, 2/0 (L,R) ch, ~192.00 kbps avg]
Language : Ukrainian
Default : No
Forced : No
Audio #4
ID : 5
Format : DTS
Format/Info : Digital Theater Systems
Mode : 16
Format settings, Endianness : Big
Codec ID : A_DTS
Duration : 2h 19mn
Bit rate mode : Constant
Bit rate : 1 509 Kbps
Channel count : 6 channels
Channel positions : Front: L C R, Side: L R, LFE
Sampling rate : 48.0 KHz
Bit depth : 24 bits
Compression mode : Lossy
Stream size : 1.47 GiB (9%)
Title : Оригинал [48 kHz/24-bit, DTS, 3/2 (L,C,R,l,r) + LFE ch, ~1509.00 kbps avg]
Language : English
Default : No
Forced : No
Audio #5
ID : 6
Format : AC-3
Format/Info : Audio Coding 3
Mode extension : CM (complete main)
Format settings, Endianness : Big
Codec ID : A_AC3
Duration : 2h 19mn
Bit rate mode : Constant
Bit rate : 192 Kbps
Channel count : 2 channels
Channel positions : Front: L R
Sampling rate : 48.0 KHz
Bit depth : 16 bits
Compression mode : Lossy
Stream size : 191 MiB (1%)
Title : Commentary With Julie Andrews, Karen Dotrice, Richard Sherman, Robert Sherman & Dick Van Dyke [48 kHz/16-bit, AC3, 2/0 (L,R) ch, ~192.00 kbps avg]
Language : English
Default : No
Forced : No
Text #1
ID : 7
Format : UTF-8
Codec ID : S_TEXT/UTF8
Codec ID/Info : UTF-8 Plain Text
Title : Russian
Language : Russian
Default : No
Forced : No
Text #2
ID : 8
Format : UTF-8
Codec ID : S_TEXT/UTF8
Codec ID/Info : UTF-8 Plain Text
Title : English
Language : English
Default : No
Forced : No
Text #3
ID : 9
Format : UTF-8
Codec ID : S_TEXT/UTF8
Codec ID/Info : UTF-8 Plain Text
Title : English (SDH)
Language : English
Default : No
Forced : No
Menu
00:00:00.000 : :Chapter 01
00:05:54.145 : :Chapter 02
00:08:56.702 : :Chapter 03
00:12:37.506 : :Chapter 04
00:18:36.865 : :Chapter 05
00:22:57.667 : :Chapter 06
00:31:39.147 : :Chapter 07
00:36:08.875 : :Chapter 08
00:41:37.203 : :Chapter 09
00:47:21.338 : :Chapter 10
00:56:50.865 : :Chapter 11
01:02:03.553 : :Chapter 12
01:09:32.585 : :Chapter 13
01:19:43.403 : :Chapter 14
01:23:55.030 : :Chapter 15
01:30:39.142 : :Chapter 16
01:39:09.777 : :Chapter 17
01:44:31.139 : :Chapter 18
01:47:35.991 : :Chapter 19
01:56:46.541 : :Chapter 20
02:05:30.022 : :Chapter 21
02:13:28.208 : :Chapter 22
02:16:29.347 : :Chapter 23
02:17:45.423 : :Chapter 24

_________________
Показать сообщения:    

Текущее время: Сегодня 04:34

Часовой пояс: GMT



Вы не можете начинать темы
Вы не можете отвечать на сообщения
Вы не можете редактировать свои сообщения
Вы не можете удалять свои сообщения
Вы не можете голосовать в опросах
Вы не можете прикреплять файлы к сообщениям
Вы не можете скачивать файлы
Наши партнеры: интернет магазин Ивановского трикотажа textilla.ru