Важное объявление!
У Нас Все раздачи мультитрекерные, при нуле пиров в релизах, можете смело вставать на закачку!
 
Автор Сообщение

HUNTER

Стаж:
4 года 4 месяца
Сообщений:
56719

Репутация: 101

[+] [-]
Вне форума [Профиль] [ЛС]

Мышиный дом - дом злодеев / Mickey's House Of Villains
Страна: США
Жанр: мультфильм, шоу, приключения
Продолжительность: 01:08:03
Год выпуска: 2001
Перевод: Профессиональный (дублированный)
Перевод: Профессиональный (многоголосый закадровый)
Русские субтитры: нет
Режиссёр: Тони Крэйг, Робертс Ганнавей / Tony Craig, Roberts Gannaway
Описание: Банда негодяев во главе с Джафаром пытается захватить домик Микки Мауса и превратить его в дом злодеев. Но верные друзья Микки - Дональд Дак, Гуффи, Плуто - как всегда рядом и готовы сражаться за торжество справедливости. Остановить и победить злодеев им помогают взаимовыручка, смекалка, чувство юмора и добрые сердца…
Дополнительная информация:
Видео в HD было куплено лично в американском iTunes.
За снятие DRM-защиты видеофайла с iTunes спасибо jhonny2.
За работу со звуком спасибо -Azureus-.
Качество: WEB-DL
Формат: MKV
Видео: H.264, 1916x1076, 23.976 fps, 5153 kbps
Аудио #1: [RUS] 48 kHz, AC3 Dolby Digital, 2/0 (L,R) ch, ~224 kbps - DUB
Аудио #2: [RUS] 48 kHz, AC3 Dolby Digital, 3/2 (L,C,R,l,r) + LFE ch, ~384 kbps avg - MVO
Аудио #3: [ENG] 48 kHz, AC3 Dolby Digital, 3/2 (L,C,R,l,r) + LFE ch, ~448 kbps avg
Субтитры: английские
Навигация по главам: 10 глав (именные)
Сэмпл

Подробные технические данные

GeneralUnique ID : 207206569786941725001885513957283973819 (0x9BE288A35B9E2219934680712313CABB)Complete name : D:\Vids\Anime[tion]\House Of Mouse\Мышиный дом - дом злодеев [2001].mkvFormat : MatroskaFormat version : Version 4 / Version 2File size : 3.01 GiBDuration : 1h 8mnOverall bit rate : 6 335 KbpsEncoded date : UTC 2015-06-16 00:54:34Writing application : mkvmerge v7.9.0 ('Birds') 64bitWriting library : libebml v1.3.1 + libmatroska v1.4.2DURATION : 01:08:03.360000000NUMBER_OF_FRAMES : 127605NUMBER_OF_BYTES : 196001280_STATISTICS_WRITING_APP : mkvmerge v7.9.0 ('Birds') 64bit_STATISTICS_WRITING_DATE_UTC : 2015-06-16 00:54:34_STATISTICS_TAGS : BPS DURATION NUMBER_OF_FRAMES NUMBER_OF_BYTES
VideoID : 1Format : AVCFormat/Info : Advanced Video CodecFormat profile : High@L4Format settings, CABAC : YesFormat settings, ReFrames : 4 framesCodec ID : V_MPEG4/ISO/AVCDuration : 1h 8mnBit rate : 5 153 KbpsWidth : 1 916 pixelsHeight : 1 076 pixelsDisplay aspect ratio : 16:9Frame rate mode : ConstantFrame rate : 23.976 fpsColor space : YUVChroma subsampling : 4:2:0Bit depth : 8 bitsScan type : ProgressiveBits/(Pixel*Frame) : 0.104Stream size : 2.45 GiB (81%)Default : YesForced : NoColor range : LimitedColor primaries : BT.709Transfer characteristics : BT.709Matrix coefficients : BT.709
Audio #1ID : 2Format : AC-3Format/Info : Audio Coding 3Mode extension : CM (complete main)Format settings, Endianness : BigCodec ID : A_AC3Duration : 1h 8mnBit rate mode : ConstantBit rate : 224 KbpsChannel(s) : 2 channelsChannel positions : Front: L RSampling rate : 48.0 KHzCompression mode : LossyStream size : 109 MiB (4%)Title : DubLanguage : RussianDefault : YesForced : No
Audio #2ID : 3Format : AC-3Format/Info : Audio Coding 3Mode extension : CM (complete main)Format settings, Endianness : BigCodec ID : A_AC3Duration : 1h 8mnBit rate mode : ConstantBit rate : 384 KbpsChannel(s) : 6 channelsChannel positions : Front: L C R, Side: L R, LFESampling rate : 48.0 KHzCompression mode : LossyStream size : 187 MiB (6%)Title : MVOLanguage : RussianDefault : NoForced : No
Audio #3ID : 4Format : AC-3Format/Info : Audio Coding 3Mode extension : CM (complete main)Format settings, Endianness : BigCodec ID : A_AC3Duration : 1h 8mnBit rate mode : ConstantBit rate : 448 KbpsChannel(s) : 6 channelsChannel positions : Front: L C R, Side: L R, LFESampling rate : 48.0 KHzCompression mode : LossyStream size : 218 MiB (7%)Title : OriginalLanguage : EnglishDefault : NoForced : No
TextID : 5Format : UTF-8Codec ID : S_TEXT/UTF8Codec ID/Info : UTF-8 Plain TextLanguage : EnglishDefault : YesForced : No
Menu00:00:00.000 : en:Opening Credits/Trick or Treat00:10:04.000 : en:Mickey's Mechanical House00:17:42.000 : en:How to Haunt a House00:23:53.000 : en:Lonesome Ghosts00:32:24.000 : en:Dance of the Goofys00:38:34.000 : en:Donald Duck and the Gorilla00:45:22.000 : en:"It's Our House Now"00:48:07.000 : en:Donald's Halloween Scare00:55:26.000 : en:Hansel & Gretel01:01:59.000 : en:Mickey Saves the House/End Credits

Скриншоты


_________________
Показать сообщения:    

Текущее время: Сегодня 18:52

Часовой пояс: GMT



Вы не можете начинать темы
Вы не можете отвечать на сообщения
Вы не можете редактировать свои сообщения
Вы не можете удалять свои сообщения
Вы не можете голосовать в опросах
Вы не можете прикреплять файлы к сообщениям
Вы не можете скачивать файлы