Важное объявление!
У Нас Все раздачи мультитрекерные, при нуле пиров в релизах, можете смело вставать на закачку!
 
Автор Сообщение

HUNTER

Стаж:
4 года 4 месяца
Сообщений:
56839

Репутация: 101

[+] [-]
Вне форума [Профиль] [ЛС]

Мы такие, какие есть / We Are What We Are
Страна: США
Студия: Belladonna Productions, Memento Films International, ...
Жанр: ужасы, триллер, драма
Год выпуска: 2013
Продолжительность: 01:45:09
Перевод: Любительский (двухголосый закадровый) den904, DeadSno // Перевод: kon2011
Cубтитры: русские
Оригинальная аудиодорожка: английский
Режиссер: Джим Микл / Jim Mickle
В ролях: Кэсси ДеПайва, Лорен Рейто, Джулия Гарнер, Эмбир Чилдерс, Джек Гор, Билл Сейдж, Келли МакГиллис, Уайатт Расселл, Майкл Паркс, Аннемари Лоулесс
Описание:
Казалось бы, обычная и доброжелательная семья Паркеров, всегда державшаяся особняком от остальных жителей городка, не могла бы привлечь к себе особого внимания, однако, в тихом омуте черти водятся. За закрытыми дверями, вспыльчивый глава семейства Фрэнк правит балом и хранит семейные секреты от посторонних глаз. Секреты, которые заставят содрогнуться от ужаса любого, кто прикоснется к ним..
- || || -Тип релиза: BDRip 720p (рип от EbP)

Контейнер: MKV
Видео: AVC (x264), 1280x536 (2,40:1) at 23,976 fps, 7128 Кbps, 0.433 bpp
Аудио 1: AC3; 640 Kbps; CBR; 6 ch; 48 khz | DVO - den904, DeadSno |
Аудио 2: AC3; 640 Kbps; CBR; 6 ch; 48 khz | Английский |
Формат субтитров: softsub (SRT)

Скриншоты || x264 Info || MediaInfo || Notes

Аудио дорожка №1 и RU субтитры взяты с этой раздачи, thx: arxivariys
Английские субтитры что бродят по интернету - гугло-транслейт...

MediaInfo

Код:
Общее
Уникальный идентификатор                 : 206011147074892979969520385012995594157 (0x9AFC4DBF7951D9C584348489496E17AD)
Полное имя                               : Мы такие, какие есть.2013.DVO.720p.BluRay.x264-EbP.mkv
Формат                                   : Matroska
Версия формата                           : Version 4 / Version 2
Размер файла                             : 6,30 Гбайт
Продолжительность                        : 1 ч. 45 м.
Общий поток                              : 8579 Кбит/сек
Название фильма                          : Мы такие, какие есть [720p] [2013] DVO
Дата кодирования                         : UTC 2013-11-07 04:55:23
Программа кодирования                    : mkvmerge v6.5.0 ('Isn't she lovely') built on Oct 20 2013 12:50:05
Библиотека кодирования                   : libebml v1.3.0 + libmatroska v1.4.1
Видео
Идентификатор                            : 1
Формат                                   : AVC
Формат/Информация                        : Advanced Video Codec
Профиль формата                          : High@L4.1
Параметр CABAC формата                   : Да
Параметр ReFrames формата                : 10 кадров
Идентификатор кодека                     : V_MPEG4/ISO/AVC
Продолжительность                        : 1 ч. 45 м.
Битрейт                                  : 7128 Кбит/сек
Ширина                                   : 1280 пикселей
Высота                                   : 536 пикселей
Соотношение сторон                       : 2,40:1
Режим частоты кадров                     : Постоянный
Частота кадров                           : 23,976 кадра/сек
Цветовое пространство                    : YUV
Субдискретизация насыщенности            : 4:2:0
Битовая глубина                          : 8 бит
Тип развёртки                            : Прогрессивная
Бит/(Пиксели*Кадры)                      : 0.433
Размер потока                            : 5,24 Гбайт (83%)
Заголовок                                : profile.php?mode=viewprofile&u=22488948
Библиотека кодирования                   : x264 core 135 r2345 f0c1c53
Настройки программы                      : cabac=1 / ref=10 / deblock=1:-3:-3 / analyse=0x3:0x113 / me=tesa / subme=10 / psy=1 / psy_rd=1.10:0.00 / mixed_ref=1 / me_range=16 / chroma_me=1 / trellis=2 / 8x8dct=1 / cqm=0 / deadzone=21,11 / fast_pskip=0 / chroma_qp_offset=-2 / threads=12 / lookahead_threads=2 / sliced_threads=0 / nr=0 / decimate=0 / interlaced=0 / bluray_compat=0 / constrained_intra=0 / bframes=8 / b_pyramid=2 / b_adapt=2 / b_bias=0 / direct=3 / weightb=1 / open_gop=0 / weightp=2 / keyint=250 / keyint_min=23 / scenecut=40 / intra_refresh=0 / rc=crf / mbtree=0 / crf=15.5 / qcomp=0.70 / qpmin=0 / qpmax=69 / qpstep=4 / ip_ratio=1.30 / pb_ratio=1.30 / aq=1:0.70 / zones=146344,151273,crf=30
Язык                                     : English
Default                                  : Да
Forced                                   : Нет
Аудио #1
Идентификатор                            : 2
Формат                                   : AC-3
Формат/Информация                        : Audio Coding 3
Расширение режима                        : CM (complete main)
Параметр Endianness формата              : Big
Идентификатор кодека                     : A_AC3
Продолжительность                        : 1 ч. 45 м.
Вид битрейта                             : Постоянный
Битрейт                                  : 640 Кбит/сек
Каналы                                   : 6 каналов
Расположение каналов                     : Front: L C R, Side: L R, LFE
Частота                                  : 48,0 КГц
Битовая глубина                          : 16 бит
Метод сжатия                             : С потерями
Размер потока                            : 481 Мбайт (7%)
Заголовок                                : DVO [den904, DeadSno]
Язык                                     : Russian
Default                                  : Да
Forced                                   : Нет
Аудио #2
Идентификатор                            : 3
Формат                                   : AC-3
Формат/Информация                        : Audio Coding 3
Расширение режима                        : CM (complete main)
Параметр Endianness формата              : Big
Идентификатор кодека                     : A_AC3
Продолжительность                        : 1 ч. 45 м.
Вид битрейта                             : Постоянный
Битрейт                                  : 640 Кбит/сек
Каналы                                   : 6 каналов
Расположение каналов                     : Front: L C R, Side: L R, LFE
Частота                                  : 48,0 КГц
Битовая глубина                          : 16 бит
Метод сжатия                             : С потерями
Размер потока                            : 481 Мбайт (7%)
Язык                                     : English
Default                                  : Нет
Forced                                   : Нет
Текст
Идентификатор                            : 4
Формат                                   : UTF-8
Идентификатор кодека                     : S_TEXT/UTF8
Идентификатор кодека/Информация          : UTF-8 Plain Text
Заголовок                                : [kon2011]
Язык                                     : Russian
Default                                  : Нет
Forced                                   : Нет
Меню
00:00:00.000                             : en:00:00:00.000
00:05:21.363                             : en:00:05:21.363
00:11:58.718                             : en:00:11:58.718
00:16:00.960                             : en:00:16:00.960
00:22:14.333                             : en:00:22:14.333
00:29:52.791                             : en:00:29:52.791
00:37:33.251                             : en:00:37:33.251
00:41:58.516                             : en:00:41:58.516
00:46:43.801                             : en:00:46:43.801
00:53:49.226                             : en:00:53:49.226
00:59:16.553                             : en:00:59:16.553
01:09:25.161                             : en:01:09:25.161
01:15:56.552                             : en:01:15:56.552
01:19:59.795                             : en:01:19:59.795
01:24:06.041                             : en:01:24:06.041
01:31:22.477                             : en:01:31:22.477
01:34:53.688                             : en:01:34:53.688
01:40:10.004                             : en:01:40:10.004

_________________
Показать сообщения:    

Текущее время: Сегодня 23:19

Часовой пояс: GMT



Вы не можете начинать темы
Вы не можете отвечать на сообщения
Вы не можете редактировать свои сообщения
Вы не можете удалять свои сообщения
Вы не можете голосовать в опросах
Вы не можете прикреплять файлы к сообщениям
Вы не можете скачивать файлы