Важное объявление!
У Нас Все раздачи мультитрекерные, при нуле пиров в релизах, можете смело вставать на закачку!
 
Автор Сообщение

HUNTER

Стаж:
4 года 4 месяца
Сообщений:
56719

Репутация: 101

[+] [-]
Вне форума [Профиль] [ЛС]

Мун из Алабамы / Alabama Moon
Страна: СШАСтудия: (Alabama Moon Entertainment, Faulkner-McLean Entertainment)
Жанр: Драма, Приключения
Год выпуска: 2009
Продолжительность: 01:35:40
Перевод: любительский одноголосый закадровый (Вячеслав Прошин)
Cубтитры: нет
Оригинальная аудиодорожка: английский
Режиссер: Тим МакКенлис / Tim McCanlies
В ролях: Джимми Беннетт, Клинт Ховард, Гэбриэл Бассо, Гари Граббс, Юрайя Шелтон, Джон Гудмен и др.
Описание: После внезапной смерти отца 11-летний Мун, выросший в алабамской глуши и вместе с отцом освоивший навыки выживания в дикой природе, вынужден учиться выживать в современном цивилизованном обществе.
По одноименной книге Уотта Ки.
Доп. информация: Перевод: Алексей Простотак
Озвучание: Вячеслав Прошин
Релиз: Кинопортал Близзард
Меню: есть,анимированное,озвученное
Сэмпл: http://multi-up.com/1094734

Перевод: Алексей Простотак
Озвучание: Вячеслав Прошин
Релиз: Кинопортал Близзард

Тип релиза: DVD5 (Custom)
Контейнер: DVD-Video
Видео: NTSC 16:9 (720x480) VBR Auto Letterboxed
Аудио: AC3, 3/2 (L,C,R,SL,SR)+LFE ch, 448 kbps, Delay -49 mSec (английский)
Аудио 2: AC3, 2/0 (L,R) ch, 192 kbps, Delay -49 mSec (английский)
Аудио 3: AC3, 3/2 (L,C,R,SL,SR)+LFE ch, 448 kbps, Delay -49 mSec (русский)

MediaInfo

Общее
Полное имя : F:\МОИ ВИДЕО ЗАПИСИ DViX, AVi, MPG4\ВИДЕО В ФОРМАТЕ VOB\Мун из Алабамы Alabama Moon (2009) США DVD5 rus\Alabama Moon (2009) DVD5 rus\VIDEO_TS\VTS_01_2.VOB
Формат : MPEG-PS
Размер файла : 1024 Мбайт
Продолжительность : 23 м.
Режим общего битрейта : Переменный
Общий поток : 6099 Кбит/сек
Видео
Идентификатор : 224 (0xE0)
Формат : MPEG Video
Версия формата : Version 2
Профиль формата : Main@Main
Параметр BVOP формата : Да
Параметр матрицы формата : Выборочная
Параметр GOP формата : Variable
Продолжительность : 23 м.
Вид битрейта : Переменный
Битрейт : 4889 Кбит/сек
Максимальный битрейт : 9802 Кбит/сек
Ширина : 720 пикселей
Высота : 480 пикселей
Соотношение сторон : 16:9
Частота кадров : 23,976 (24000/1001) кадра/сек
Цветовое пространство : YUV
Субдискретизация насыщенности : 4:2:0
Битовая глубина : 8 бит
Тип развёртки : Прогрессивная
Порядок развёртки : 2:3 Pulldown
Метод сжатия : С потерями
Бит/(Пиксели*Кадры) : 0.590
Временной код первого кадра : 01:20:54:21
Оригинал временного кода : Group of pictures header
Размер потока : 821 Мбайт (80%)
Аудио #1
Идентификатор : 189 (0xBD)-128 (0x80)
Формат : AC-3
Формат/Информация : Audio Coding 3
Расширение режима : CM (complete main)
Параметр Endianness формата : Big
Режим смешивания : DVD-Video
Продолжительность : 23 м.
Вид битрейта : Постоянный
Битрейт : 448 Кбит/сек
Каналы : 6 каналов
Расположение каналов : Front: L C R, Side: L R, LFE
Частота : 48,0 КГц
Частота кадров : 31,250 кадров/сек (1536 spf)
Метод сжатия : С потерями
Задержка видео : -591 мс.
Размер потока : 75,2 Мбайт (7%)
Аудио #2
Идентификатор : 189 (0xBD)-129 (0x81)
Формат : AC-3
Формат/Информация : Audio Coding 3
Профиль формата : Dolby Digital
Расширение режима : CM (complete main)
Параметр Endianness формата : Big
Режим смешивания : DVD-Video
Продолжительность : 23 м.
Вид битрейта : Постоянный
Битрейт : 192 Кбит/сек
Каналы : 2 канала
Расположение каналов : Front: L R
Частота : 48,0 КГц
Частота кадров : 31,250 кадров/сек (1536 spf)
Метод сжатия : С потерями
Задержка видео : -559 мс.
Размер потока : 32,2 Мбайт (3%)
Аудио #3
Идентификатор : 189 (0xBD)-130 (0x82)
Формат : AC-3
Формат/Информация : Audio Coding 3
Расширение режима : CM (complete main)
Параметр Endianness формата : Big
Режим смешивания : DVD-Video
Продолжительность : 23 м.
Вид битрейта : Постоянный
Битрейт : 448 Кбит/сек
Каналы : 6 каналов
Расположение каналов : Front: L C R, Side: L R, LFE
Частота : 48,0 КГц
Частота кадров : 31,250 кадров/сек (1536 spf)
Метод сжатия : С потерями
Задержка видео : -591 мс.
Размер потока : 75,2 Мбайт (7%)
Текст #1
Идентификатор : 189 (0xBD)-32 (0x20)
Формат : RLE
Формат/Информация : Run-length encoding
Режим смешивания : DVD-Video
Продолжительность : 23 м.
Задержка видео : 25 с.
Текст #2
Идентификатор : 189 (0xBD)-33 (0x21)
Формат : RLE
Формат/Информация : Run-length encoding
Режим смешивания : DVD-Video
Продолжительность : 23 м.
Задержка видео : 25 с.
Меню
Title: Alabama Moon (2009) DVD5 rus
Size: 4.35 Gb ( 4 566 148,00 KBytes ) - DVD-5
Enabled regions: 1, 2, 3, 4, 5, 6, 7, 8
VTS_01 :
Play Length: 01:39:39
Video: NTSC 16:9 (720x480) VBR, Auto Letterboxed
Audio:
English, AC3, 3/2 (L,C,R,SL,SR)+LFE ch, 448 kbps, Delay -49 mSec
English, AC3, 2/0 (L,R) ch, 192 kbps, Delay -49 mSec
Russian, AC3, 3/2 (L,C,R,SL,SR)+LFE ch, 448 kbps, Delay -49 mSec
Subtitles:
Russian
Espanol
* Menus Information *
VIDEO_TS Menu
Video:
NTSC 16:9 (720x480) VBR
Auto Letterboxed
English Language Unit :
Title Menu
VTS_01 Menu
Video:
NTSC 16:9 (720x480) VBR
Auto Letterboxed
Audio:
Not specified (Dolby AC3, 2 ch)
English Language Unit :
Root Menu
Subpicture Menu
Chapter (PTT) Menu

Скриншоты меню



_________________
Показать сообщения:    

Текущее время: Сегодня 23:04

Часовой пояс: GMT



Вы не можете начинать темы
Вы не можете отвечать на сообщения
Вы не можете редактировать свои сообщения
Вы не можете удалять свои сообщения
Вы не можете голосовать в опросах
Вы не можете прикреплять файлы к сообщениям
Вы не можете скачивать файлы