Важное объявление!
У Нас Все раздачи мультитрекерные, при нуле пиров в релизах, можете смело вставать на закачку!
 
Автор Сообщение

HUNTER

Стаж:
4 года 4 месяца
Сообщений:
56765

Репутация: 101

[+] [-]
Вне форума [Профиль] [ЛС]

Мумия. В поисках потерянных свитков / The Mummy: Quest for lost scrolls
Год выпуска: 2002
Страна: США, Universal Studios
Жанр: мультфильм, детский, семейный
Продолжительность: 01:00:25
Перевод: Профессиональный (дублированный) - Объединение "Русский дубляж" по заказу СТС, 2010 год
Русские субтитры: нет
Режиссёр: Эдди Хочинс / Eddy Houchins
Роли дублировали: Денис Некрасов, Ольга Шорохова, Ирина Гришина, Диомид Виноградов, Андрей Симанов
Описание: одиннадцатилетний Алекс вечно попадает в истории! Но о таких событиях он даже не мог мечтать. В центре сюжета увлекательного мультфильма – приключения мальчика и его родителей, которые должны отыскать древние свитки. Письмена могут помочь разгадать удивительную тайну. Но на пути героев встает мумия
Доп. информация: Запись (захват) спутниковой трансляции канала "Дисней". Конечные титры немного ускорены.
Релиз группы:
Семпл: https://yadi.sk/i/M7mV6G3AcPq47
Качество видео: DVB
Формат видео: MPEG-PS
Видео: MPEG2 Video, 720x576 (4:3), 25 fps, 2500 kbps
Аудио: MPEG Audiо, 2 сh, 48 kHz, 192 kbps

MediaInfo

General
Complete name : D:\Мумия. В поисках потерянных свитков. (2002)_DVB by SLuMeP.mpg
Format : MPEG-PS
File size : 1.15 GiB
Duration : 1h 0mn
Overall bit rate mode : Variable
Overall bit rate : 2 718 Kbps
Writing library : (dvd5: Jun 16 2014)
Video
ID : 224 (0xE0)
Format : MPEG Video
Format version : Version 2
Format profile : Main@Main
Format settings, BVOP : Yes
Format settings, Matrix : Custom
Format settings, GOP : Variable
Duration : 1h 0mn
Bit rate mode : Variable
Bit rate : 2 472 Kbps
Maximum bit rate : 15.0 Mbps
Width : 720 pixels
Height : 576 pixels
Display aspect ratio : 4:3
Frame rate : 25.000 fps
Standard : PAL
Color space : YUV
Chroma subsampling : 4:2:0
Bit depth : 8 bits
Scan type : Interlaced
Scan order : Top Field First
Compression mode : Lossy
Bits/(Pixel*Frame) : 0.238
Time code of first frame : 00:00:00:00
Time code source : Group of pictures header
Stream size : 1.04 GiB (91%)
Source encoded stream size : (dvd5: Jun 16 2014)
Writing library : (dvd5: Jun 16 2014)
Audio
ID : 192 (0xC0)
Format : MPEG Audio
Format version : Version 1
Format profile : Layer 2
Duration : 1h 0mn
Bit rate mode : Constant
Bit rate : 192 Kbps
Channel(s) : 2 channels
Sampling rate : 48.0 KHz
Compression mode : Lossy
Delay relative to video : -80ms
Stream size : 83.0 MiB (7%)
Menu

Скриншоты



_________________
Показать сообщения:    

Текущее время: Сегодня 04:05

Часовой пояс: GMT



Вы не можете начинать темы
Вы не можете отвечать на сообщения
Вы не можете редактировать свои сообщения
Вы не можете удалять свои сообщения
Вы не можете голосовать в опросах
Вы не можете прикреплять файлы к сообщениям
Вы не можете скачивать файлы