Важное объявление!
У Нас Все раздачи мультитрекерные, при нуле пиров в релизах, можете смело вставать на закачку!
 
Автор Сообщение

HUNTER

Стаж:
4 года 4 месяца
Сообщений:
56822

Репутация: 101

[+] [-]
Вне форума [Профиль] [ЛС]

Мумии пришельцев / Aliens mummies
Дата/Год выпуска: 2012
Страна: США
Жанр: Научно-популярный
Продолжительность: 00:43:56
Перевод: Профессиональный (одноголосый закадровый)
Режиссер: Стюарт Кларк / Stuart Clarke
Телеканал: Discovery
Описание: Одни ли мы во вселенной ? Наука утверждает что вряд ли. Если чужеродная жизнь существует вне нашей планеты, то и на Земле со временем должны найтись тому доказательства. Мексика, уже более пяти лет ученые не могут выяснить откуда взялось это существо, хранящее тёмную тайну ? Горы Анды в Перу, здесь был найден скелет существа, которому приписывают внеземное происхождение. На Лонг-Айленде обнаружены жуткие останки чудовища, похожего на пришельца. Загадка мумий этих пришельцев будет наконец-то раскрыта.

качество: SATRip
формат: AVI
Видео: Xvid 720x400 25fps 1738kbps
Аудио: MP3 48000Hz stereo 320kbps

MediaInfo

GeneralComplete name : E:\Films\Dokumentary\Discovery Aliens mummies.aviFormat : AVIFormat/Info : Audio Video InterleaveFile size : 652 MiBDuration : 43mn 56sOverall bit rate : 2 075 Kbps
VideoID : 0Format : MPEG-4 VisualFormat profile : Simple@L3Format settings, BVOP : NoFormat settings, QPel : NoFormat settings, GMC : No warppointsFormat settings, Matrix : Default (H.263)Codec ID : XVIDCodec ID/Hint : XviDDuration : 43mn 56sBit rate : 1 738 KbpsWidth : 720 pixelsHeight : 400 pixelsDisplay aspect ratio : 16:9Frame rate : 25.000 fpsColor space : YUVChroma subsampling : 4:2:0Bit depth : 8 bitsScan type : ProgressiveCompression mode : LossyBits/(Pixel*Frame) : 0.241Stream size : 546 MiB (84%)Writing library : XviD 1.2.1 (UTC 2008-12-04)
AudioID : 1Format : MPEG AudioFormat version : Version 1Format profile : Layer 3Mode : Joint stereoMode extension : MS StereoCodec ID : 55Codec ID/Hint : MP3Duration : 43mn 56sBit rate mode : ConstantBit rate : 320 KbpsChannel(s) : 2 channelsSampling rate : 48.0 KHzCompression mode : LossyStream size : 101 MiB (15%)Alignment : Aligned on interleavesInterleave, duration : 24 ms (0.60 video frame)Writing library : LAME3.98.2

_________________
Показать сообщения:    

Текущее время: Сегодня 07:46

Часовой пояс: GMT



Вы не можете начинать темы
Вы не можете отвечать на сообщения
Вы не можете редактировать свои сообщения
Вы не можете удалять свои сообщения
Вы не можете голосовать в опросах
Вы не можете прикреплять файлы к сообщениям
Вы не можете скачивать файлы