Важное объявление!
У Нас Все раздачи мультитрекерные, при нуле пиров в релизах, можете смело вставать на закачку!
 
Автор Сообщение

димитри37

Стаж:
3 года 9 месяцев
Сообщений:
1237

Репутация: 127

[+] [-]
Вне форума [Профиль] [ЛС]

Музыкальная шкатулка / Music Box«As a lawyer all she wanted was the truth. As a daughter all she wanted was his innocence. How well do you really know your father?»-
Страна: США
Жанр: Триллер, драма
Год выпуска: 1989
Продолжительность: 02:00:25-Перевод: Профессиональный (многоголосый закадровый)
Cубтитры: русские
Оригинальная аудиодорожка: английский-Режиссер: Коста-Гаврас / Costa-Gavras-В ролях: Джессика Лэнг, Армин Мюллер-Шталь, Фредерик Форрест, Дональд Моффет, Лукас Хаас, Шерил Линн Брюс, Мари Тёрёчик, Ж.С. Блок, Сол Фридер, Майкл Рукер, Эльжбета Чижевска, Альберт Холл, Нед Шмидтке-Описание: Венгерский иммигрант Майк Лазло арестован по обвинению в пособничестве нацистам во время второй мировой войны. Лазло угрожают депортацией, и на его защиту встает его дочь, адвокат Энн Тэлбот, уверенная, что отец стал жертвой происков венгерской коммунистической машины. Она не верит в виновность отца до тех пор, пока не собирает внушительные доказательства его коллаборационистской деятельности. Кто теперь Лазло — жертва или палач?-Sample | IMDB | КиноПоиск-Тип релиза: HDRip [исх. BDRip 1080p]
Формат видео: AVI-Видео: 704x288 (2.44:1), 25 fps, XviD build 50, 2144 kbps avg, 0.42 bit/pixel
Аудио 1: 48 kHz, AC3 Dolby Digital, 2/0 (L,R) ch, 224.00 kbps avg [Russian_MVO]
Аудио 2: 48 kHz, AC3 Dolby Digital, 2/0 (L,R) ch, 224.00 kbps avg [English]-Релиз группы: -

MediaInfo

General
Complete name : E:\Мои раздачи\Music Box [2.18]\Music Box_RG_All_Films.avi
Format : AVI
Format/Info : Audio Video Interleave
Format profile : OpenDML
File size : 2.19 GiB
Duration : 2h 0mn
Overall bit rate : 2 600 Kbps
Writing application : VirtualDubMod 1.6.0.0 SURROUND (build 2560/release)
Writing library : VirtualDubMod build 2560/release
Video
ID : 0
Format : MPEG-4 Visual
Format profile : Advanced Simple@L5
Format settings, BVOP : Yes
Format settings, QPel : No
Format settings, GMC : No warppoints
Format settings, Matrix : Custom
Codec ID : XVID
Codec ID/Hint : XviD
Duration : 2h 0mn
Bit rate : 2 133 Kbps
Width : 704 pixels
Height : 288 pixels
Display aspect ratio : 2.40:1
Frame rate : 25.000 fps
Color space : YUV
Chroma subsampling : 4:2:0
Bit depth : 8 bits
Scan type : Progressive
Compression mode : Lossy
Bits/(Pixel*Frame) : 0.421
Stream size : 1.79 GiB (82%)
Writing library : XviD 1.2.1 (UTC 2008-12-04)
Audio #1
ID : 1
Format : AC-3
Format/Info : Audio Coding 3
Mode extension : CM (complete main)
Codec ID : 2000
Duration : 2h 0mn
Bit rate mode : Constant
Bit rate : 224 Kbps
Channel(s) : 2 channels
Channel positions : Front: L R
Sampling rate : 48.0 KHz
Bit depth : 16 bits
Compression mode : Lossy
Stream size : 193 MiB (9%)
Alignment : Split accross interleaves
Interleave, duration : 40 ms (1.00 video frame)
Interleave, preload duration : 500 ms
Audio #2
ID : 2
Format : AC-3
Format/Info : Audio Coding 3
Mode extension : CM (complete main)
Codec ID : 2000
Duration : 2h 0mn
Bit rate mode : Constant
Bit rate : 224 Kbps
Channel(s) : 2 channels
Channel positions : Front: L R
Sampling rate : 48.0 KHz
Bit depth : 16 bits
Compression mode : Lossy
Stream size : 193 MiB (9%)
Alignment : Split accross interleaves
Interleave, duration : 40 ms (1.00 video frame)
Interleave, preload duration : 500 ms

Скриншоты

Показать сообщения:    

Текущее время: Сегодня 09:29

Часовой пояс: GMT



Вы не можете начинать темы
Вы не можете отвечать на сообщения
Вы не можете редактировать свои сообщения
Вы не можете удалять свои сообщения
Вы не можете голосовать в опросах
Вы не можете прикреплять файлы к сообщениям
Вы не можете скачивать файлы