Важное объявление!
У Нас Все раздачи мультитрекерные, при нуле пиров в релизах, можете смело вставать на закачку!
 
Автор Сообщение

HUNTER

Стаж:
4 года 4 месяца
Сообщений:
56755

Репутация: 101

[+] [-]
Вне форума [Профиль] [ЛС]

Мужчины против женщин / Maschi contro femmine
Страна: Италия
Жанр: комедия
Год выпуска: 2010
Продолжительность: 01:47:42
Перевод: Профессиональный (двухголосый закадровый) НТВ+
Cубтитры: нет
Оригинальная аудиодорожка: нет
Режиссер: Фаусто Брицци / Fausto Brizzi
В ролях: Паола Кортеллези, Фабио Де Луиджи, Люсия Оконе, Франческо Паннофино, Алессандро Прециози, Паоло Руффини, Карла Синьорис, Николас Вапоридис, Джорджия Вурт, Клаудио Бизио
Описание: Диего — настоящий мачо, коллекционер женских сердец и женских трусиков. Он работает в баре с танцующими официантками и, в общем, доволен всем. Не устраивает его только язвительная соседка по этажу, из-за которой у него однажды начинаются крупные проблемы.
Сэмпл: http://multi-up.com/966992

Тип релиза: HDTV 1080i
Контейнер: MKV
Видео: MPEG4 (H264) 1920x1080 (16:9) 25fps 7222 Kbps
Аудио: AC3 5.1 ch 48 kHz 16 bit 448 Kbps

MediaInfo

Общее
Уникальный идентификатор : 182470143543596583227859956687612045322 (0x894678A9C9271C0F974226F92F62680A)
Полное имя : D:\Mujchini.protiv.jencshin.HDTV.1080i.DVO.mkv
Формат : Matroska
Версия формата : Version 4 / Version 2
Размер файла : 5,89 Гбайт
Продолжительность : 1 ч. 47 м.
Общий поток : 7826 Кбит/сек
Название фильма : SharkN73 06.04.2014
Дата кодирования : UTC 2014-04-06 13:24:23
Программа кодирования : mkvmerge v6.8.0 ('Theme for Great Cities') 64bit built on Mar 2 2014 21:34:26
Библиотека кодирования : libebml v1.3.0 + libmatroska v1.4.1
Видео
Идентификатор : 1
Формат : AVC
Формат/Информация : Advanced Video Codec
Профиль формата : High@L4.0
Параметр CABAC формата : Да
Параметр ReFrames формата : 3 кадра
Параметр GOP формата : M=4, N=28
Идентификатор кодека : V_MPEG4/ISO/AVC
Продолжительность : 1 ч. 47 м.
Битрейт : 7222 Кбит/сек
Ширина : 1920 пикселей
Высота : 1080 пикселей
Соотношение сторон : 16:9
Режим частоты кадров : Постоянный
Частота кадров : 25,000 кадров/сек
Стандарт вещания : Component
Цветовое пространство : YUV
Субдискретизация насыщенности : 4:2:0
Битовая глубина : 8 бит
Тип развёртки : Чересстрочная
Порядок развёртки : Верхнее поле первое
Бит/(Пиксели*Кадры) : 0.139
Размер потока : 5,43 Гбайт (92%)
Язык : English
Default : Да
Forced : Нет
Основные цвета : BT.709
Характеристики трансфера : BT.709
Коэффициенты матрицы : BT.709
Аудио
Идентификатор : 2
Формат : AC-3
Формат/Информация : Audio Coding 3
Расширение режима : CM (complete main)
Параметр Endianness формата : Big
Идентификатор кодека : A_AC3
Продолжительность : 1 ч. 47 м.
Вид битрейта : Постоянный
Битрейт : 448 Кбит/сек
Каналы : 2 канала
Channel(s)_Original : 6 каналов
Расположение каналов : Front: L C R, Side: L R, LFE
Частота : 48,0 КГц
Битовая глубина : 16 бит
Метод сжатия : С потерями
Задержка видео : 1 мс.
Размер потока : 345 Мбайт (6%)
Язык : Russian
Default : Да
Forced : Нет

_________________
Показать сообщения:    

Текущее время: Сегодня 15:26

Часовой пояс: GMT



Вы не можете начинать темы
Вы не можете отвечать на сообщения
Вы не можете редактировать свои сообщения
Вы не можете удалять свои сообщения
Вы не можете голосовать в опросах
Вы не можете прикреплять файлы к сообщениям
Вы не можете скачивать файлы