Важное объявление!
У Нас Все раздачи мультитрекерные, при нуле пиров в релизах, можете смело вставать на закачку!
 
Автор Сообщение

HUNTER

Стаж:
4 года 4 месяца
Сообщений:
56853

Репутация: 101

[+] [-]
Вне форума [Профиль] [ЛС]

Мужчина и женщина / Un homme et une femme
Страна: Франция
Жанр: мелодрама, драма
Год выпуска: 1966
Продолжительность: 01:43:00
Перевод: Профессиональный (дублированный) киностудия «Мосфильм»
Перевод: Профессиональный (многоголосый закадровый) Film Prestige
Перевод: Профессиональный (двухголосый закадровый) НТВ
Cубтитры: русские, английские
Оригинальная аудиодорожка: французский-Режиссер: Клод Лелуш / Claude Lelouch
В ролях: Анук Эме, Жан-Луи Трентиньян, Пьер Бару, Суад Амиду, Поль Ле Персон, Симона Пари, Яна Бэрри, Жерар Сир, Валери Лагранж
Описание: Фильм о любви между молодой вдовой Анной Готье (Анук Эме), чей муж, каскадер, погиб во время съёмок фильма, и Жаном-Луи Дюроком (Жан-Луи Трентиньян), профессиональным автогонщиком, тоже вдовцом. Его жена покончила с собой, узнав, что он попал в аварию во время гонок.
IMDb || КиноПоиск-Тип релиза: BDRemux 1080p
Контейнер: MKV
Видео: MPEG-4 AVC Video, 1920x1080 at 24, 24878 kbps
Аудио#1: Русский: 48 kHz, AC3, 2.0 ch, 192 kbps
Аудио#2: Русский: 48 kHz, AC3, 2.0 ch, 192 kbps
Аудио#3: Русский: 48 kHz, AC3, 2.0 ch, 192 kbps
Аудио#4: French: 48 kHz, FLAC, 2.0 ch, 642 kbps
Формат субтитров: softsub (SRT)
Сэмпл

Дополнительно

За оригинальный диск спасибо edgarb.
Дубляж доступен благодаря Aleksjei, перевод НТВ - alenavova. Под переводом НТВ английский дубляж.
Главы с издания Film Prestige.

MediaInfo

General
Unique ID : 179436310417489796838755754528962835109 (0x86FE2D243F526E62809912138810F2A5)
Complete name : Un homme et une femme.1966.BDRemux.rutracker.mkv
Format : Matroska
Format version : Version 2
File size : 18.8 GiB
Duration : 1h 42mn
Overall bit rate mode : Variable
Overall bit rate : 26.1 Mbps
Movie name : Release for RuTracker
Writing application : mkvmerge v5.0.1 ('Es ist Sommer') built on Nov 6 2011 16:23:40
Writing library : libebml v1.2.2 + libmatroska v1.3.0
Video
ID : 1
Format : AVC
Format/Info : Advanced Video Codec
Format profile : High@L4.1
Format settings, CABAC : Yes
Format settings, ReFrames : 4 frames
Codec ID : V_MPEG4/ISO/AVC
Duration : 1h 42mn
Bit rate mode : Variable
Maximum bit rate : 38.0 Mbps
Width : 1 920 pixels
Height : 1 080 pixels
Display aspect ratio : 16:9
Frame rate mode : Constant
Frame rate : 24.000 fps
Color space : YUV
Chroma subsampling : 4:2:0
Bit depth : 8 bits
Scan type : Progressive
Title : Un homme et une femme.1966.BDRemux.rutracker
Language : French
Default : Yes
Forced : No
Audio #1
ID : 2
Format : AC-3
Format/Info : Audio Coding 3
Mode extension : CM (complete main)
Format settings, Endianness : Big
Codec ID : A_AC3
Duration : 1h 42mn
Bit rate mode : Constant
Bit rate : 192 Kbps
Channel(s) : 2 channels
Channel positions : Front: L R
Sampling rate : 48.0 KHz
Bit depth : 16 bits
Compression mode : Lossy
Stream size : 141 MiB (1%)
Title : Мосфильм
Language : Russian
Default : Yes
Forced : No
Audio #2
ID : 3
Format : AC-3
Format/Info : Audio Coding 3
Mode extension : CM (complete main)
Format settings, Endianness : Big
Codec ID : A_AC3
Duration : 1h 42mn
Bit rate mode : Constant
Bit rate : 192 Kbps
Channel(s) : 2 channels
Channel positions : Front: L R
Sampling rate : 48.0 KHz
Bit depth : 16 bits
Compression mode : Lossy
Stream size : 141 MiB (1%)
Title : Film Prestige
Language : Russian
Default : No
Forced : No
Audio #3
ID : 4
Format : AC-3
Format/Info : Audio Coding 3
Mode extension : CM (complete main)
Format settings, Endianness : Big
Codec ID : A_AC3
Duration : 1h 42mn
Bit rate mode : Constant
Bit rate : 192 Kbps
Channel(s) : 2 channels
Channel positions : Front: L R
Sampling rate : 48.0 KHz
Bit depth : 16 bits
Compression mode : Lossy
Stream size : 141 MiB (1%)
Title : НТВ
Language : Russian
Default : No
Forced : No
Audio #4
ID : 5
Format : FLAC
Format/Info : Free Lossless Audio Codec
Codec ID : A_FLAC
Duration : 1h 42mn
Bit rate mode : Variable
Channel(s) : 2 channels
Sampling rate : 48.0 KHz
Bit depth : 24 bits
Writing library : libFLAC 1.2.1 (UTC 2007-09-17)
Language : French
Default : No
Forced : No
Text #1
ID : 6
Format : UTF-8
Codec ID : S_TEXT/UTF8
Codec ID/Info : UTF-8 Plain Text
Language : Russian
Default : No
Forced : No
Text #2
ID : 7
Format : UTF-8
Codec ID : S_TEXT/UTF8
Codec ID/Info : UTF-8 Plain Text
Language : English
Default : No
Forced : No
Menu
00:00:00.000 : ru:Родители и дети
00:07:01.333 : ru:Поездка домой
00:12:23.093 : ru:Каскадер
00:15:53.133 : ru:Анна и её муж
00:19:54.134 : ru:На съемках
00:22:56.002 : ru:Гоночная машина
00:29:41.069 : ru:Поездка под дождем
00:36:46.053 : ru:Их работа
00:46:09.137 : ru:На пляже
00:51:57.937 : ru:Жена Жанна-Луи
01:01:31.004 : ru:Правда
01:03:50.771 : ru:На работе
01:08:46.038 : ru:Прогулка и гонка
01:11:16.839 : ru:Телеграмма Анны
01:15:01.009 : ru:Беспокойные мысли
01:22:21.040 : ru:Встреча в Довиле
01:25:59.004 : ru:Любовь
01:31:53.508 : ru:Разлука
01:38:05.541 : ru:В ресторане
01:41:06.075 : ru:Снова вместе

Скриншоты


_________________
Показать сообщения:    

Текущее время: Сегодня 13:26

Часовой пояс: GMT



Вы не можете начинать темы
Вы не можете отвечать на сообщения
Вы не можете редактировать свои сообщения
Вы не можете удалять свои сообщения
Вы не можете голосовать в опросах
Вы не можете прикреплять файлы к сообщениям
Вы не можете скачивать файлы
Наши партнеры: интернет магазин Ивановского трикотажа textilla.ru