Важное объявление!
У Нас Все раздачи мультитрекерные, при нуле пиров в релизах, можете смело вставать на закачку!
 
Автор Сообщение

димитри37

Стаж:
3 года 9 месяцев
Сообщений:
1237

Репутация: 127

[+] [-]
Вне форума [Профиль] [ЛС]

-Муви 43 / Movie 43-Страна: США
Жанр: комедия, фарс, абсурд
Год выпуска: 2013
Продолжительность: 01:37:59-Перевод: Профессиональный (дублированный)
Перевод 2: Авторский (одноголосый закадровый) Дмитрий Пучков (Гоблин)
Cубтитры: русские, английские
Оригинальная аудиодорожка: английский-Режиссер: Стивен Брилл / Steven Brill, Питер Фаррелли / Peter Farrelly, Элизабет Бэнкс / Bob Odenkirk
В ролях: Холли Берри, Джерард Батлер, Анна Фэрис, Хью Джекман, Джонни Ноксвил, Кристофер Минц-Плассе, Шонн Уильям Скотт, Эмма Стоун, Кейт Уинслет-Описание: 25 cуперзвезд первой величины - в комедийном проекте, который состоит из двух десятков мини-новелл с нескончаемым потоком шуток, гэгов, острот и пародий, о страстях и страстишках человеческих.-Доп. информация: Русский звук с этого диска. Видеоряд, оригинал и английские сабы с бразильского издания.-Сэмпл: http://yadi.sk/d/cbQov8rW4Nqei-Тип релиза: BDRip 720p
Контейнер: MKV
Видео: MPEG-4 AVC Video 6616 kbps 1280x694p (1.85:1) / 23,976 fps / High Profile 4.1
Аудио: DTS-HD Master Audio Russian 5.1 / 48 kHz / 1509 kbps / 16-bit | Дубляж
Аудио 2: DTS Audio Russian 5.1 / 48 kHz / 1509 kbps / 16-bit | Пучков
Аудио 3: DTS Audio English 5.1 / 48 kHz / 1509 kbps / 16-bit
Формат субтитров: softsub (SRT)

Видеоряд от DON

Movie 43 2013 720p BluRay DD5.1 x264-DON
Technical informationRUNTIME.......: 01:37:59SIZE..........: 4.96 GBVIDEO CODEC...: x264, CRF16.8, L4.1FRAMERATE.....: 23.976 fpsBITRATE.......: 6616kbpsRESOLUTION....: 1280x694 (1.85:1)AUDIO.........: English AC3 5.1 @ 640 kbpsSUBTITLES.....: English, English SDHCHAPTERS......: YesSOURCE........: 1080p BRA Blu-ray AVC DTS-HD MA 5.1-DON
ENCODER.......: extreme94THEATRE DATE..: 01/01/2013RELEASE DATE..: 24/04/2013
x264 log:x264 [info]: frame I:1558 Avg QP:15.18 size:123552x264 [info]: frame P:28953 Avg QP:16.49 size: 62846x264 [info]: frame B:110457 Avg QP:18.37 size: 25804--Screens:--Source________________________________________________DON



MediaInfo

Код:
General
Complete name                    : F:\  -= Фильмы =-\Муви 43 (2013. Movie 43).mkv
Format                           : Matroska
File size                        : 7.63 GiB
Duration                         : 1h 38mn
Overall bit rate                 : 11.1 Mbps
Movie name                       : Release for RuTracker
Encoded date                     : UTC 2013-04-27 01:02:49
Writing application              : mkvmerge v4.9.1 ('Ich will') сборка от Jul 11 2011 23:53:15
Writing library                  : libebml v1.2.1 + libmatroska v1.1.1
Video
ID                               : 1
Format                           : AVC
Format/Info                      : Advanced Video Codec
Format profile                   : High@L4.1
Format settings, CABAC           : Yes
Format settings, ReFrames        : 9 frames
Muxing mode                      : Container profile=Unknown@4.1
Codec ID                         : V_MPEG4/ISO/AVC
Duration                         : 1h 38mn
Bit rate                         : 6 394 Kbps
Width                            : 1 280 pixels
Height                           : 694 pixels
Display aspect ratio             : 16:9
Frame rate                       : 23.976 fps
Color space                      : YUV
Chroma subsampling               : 4:2:0
Bit depth                        : 8 bits
Scan type                        : Progressive
Bits/(Pixel*Frame)               : 0.300
Stream size                      : 4.38 GiB (57%)
Title                            : Movie.43.2012.720p.BluRay.x264-DON
Writing library                  : x264 core 130 r2273 b3065e6
Encoding settings                : cabac=1 / ref=9 / deblock=1:-3:-3 / analyse=0x3:0x133 / me=umh / subme=10 / psy=1 / psy_rd=1.05:0.05 / mixed_ref=1 / me_range=16 / chroma_me=1 / trellis=2 / 8x8dct=1 / cqm=0 / deadzone=21,11 / fast_pskip=0 / chroma_qp_offset=-3 / threads=12 / lookahead_threads=2 / sliced_threads=0 / nr=0 / decimate=0 / interlaced=0 / bluray_compat=0 / constrained_intra=0 / bframes=8 / b_pyramid=2 / b_adapt=2 / b_bias=0 / direct=3 / weightb=1 / open_gop=0 / weightp=2 / keyint=250 / keyint_min=23 / scenecut=40 / intra_refresh=0 / rc=crf / mbtree=0 / crf=16.8 / qcomp=0.60 / qpmin=0 / qpmax=69 / qpstep=4 / ip_ratio=1.40 / pb_ratio=1.30 / aq=1:0.75
Language                         : English
Audio #1
ID                               : 2
Format                           : DTS
Format/Info                      : Digital Theater Systems
Codec ID                         : A_DTS
Duration                         : 1h 38mn
Bit rate mode                    : Constant
Bit rate                         : 1 510 Kbps
Channel(s)                       : 6 channels
Channel positions                : Front: L C R, Side: L R, LFE
Sampling rate                    : 48.0 KHz
Bit depth                        : 16 bits
Stream size                      : 1.03 GiB (14%)
Title                            : Дубляж
Language                         : Russian
Audio #2
ID                               : 3
Format                           : DTS
Format/Info                      : Digital Theater Systems
Codec ID                         : A_DTS
Duration                         : 1h 38mn
Bit rate mode                    : Constant
Bit rate                         : 1 510 Kbps
Channel(s)                       : 6 channels
Channel positions                : Front: L C R, Side: L R, LFE
Sampling rate                    : 48.0 KHz
Bit depth                        : 16 bits
Stream size                      : 1.03 GiB (14%)
Title                            : Гоблин
Language                         : Russian
Audio #3
ID                               : 4
Format                           : DTS
Format/Info                      : Digital Theater Systems
Codec ID                         : A_DTS
Duration                         : 1h 38mn
Bit rate mode                    : Constant
Bit rate                         : 1 510 Kbps
Channel(s)                       : 6 channels
Channel positions                : Front: L C R, Side: L R, LFE
Sampling rate                    : 48.0 KHz
Bit depth                        : 16 bits
Stream size                      : 1.03 GiB (14%)
Language                         : English
Text #1
ID                               : 5
Format                           : UTF-8
Codec ID                         : S_TEXT/UTF8
Codec ID/Info                    : UTF-8 Plain Text
Language                         : Russian
Text #2
ID                               : 6
Format                           : UTF-8
Codec ID                         : S_TEXT/UTF8
Codec ID/Info                    : UTF-8 Plain Text
Language                         : English
Text #3
ID                               : 7
Format                           : UTF-8
Codec ID                         : S_TEXT/UTF8
Codec ID/Info                    : UTF-8 Plain Text
Title                            : SDH
Language                         : English
Menu
00:00:00.000                     : en:00:00:00.000
00:13:18.464                     : en:00:13:18.464
00:23:28.616                     : en:00:23:28.616
00:33:14.534                     : en:00:33:14.534
00:42:04.772                     : en:00:42:04.772
00:55:17.689                     : en:00:55:17.689
01:07:17.909                     : en:01:07:17.909
01:14:12.448                     : en:01:14:12.448
01:23:19.703                     : en:01:23:19.703
01:28:51.284                     : en:01:28:51.284

Скриншоты


Альтернативный хостинг


Сравнение RUS vs. BRA



Показать сообщения:    

Текущее время: Сегодня 15:27

Часовой пояс: GMT



Вы не можете начинать темы
Вы не можете отвечать на сообщения
Вы не можете редактировать свои сообщения
Вы не можете удалять свои сообщения
Вы не можете голосовать в опросах
Вы не можете прикреплять файлы к сообщениям
Вы не можете скачивать файлы