Важное объявление!
У Нас Все раздачи мультитрекерные, при нуле пиров в релизах, можете смело вставать на закачку!
 
Автор Сообщение

HUNTER

Стаж:
4 года 4 месяца
Сообщений:
56790

Репутация: 101

[+] [-]
Вне форума [Профиль] [ЛС]

Мстители: Эра Альтрона / Avengers: Age of Ultron
Страна: США
Жанр: фантастика, боевик, приключения
Год выпуска: 2015
Продолжительность: 02:21:18
Перевод: Профессиональный (дублированный)
Перевод: Авторский (одноголосый закадровый) А. Гаврилов
Cубтитры: Russian (Forced, iTunes), Russian (iTunes), Ukrainian (iTunes), English (Forced, iTunes), English (iTunes)
Оригинальная аудиодорожка: английский-Режиссер: Джосс Уидон / Joss Whedon-В ролях: Роберт Дауни мл., Крис Хемсворт, Крис Эванс, Скарлетт Йоханссон, Марк Руффало, Джереми Реннер, Аарон Тейлор-Джонсон, Элизабет Олсен, Джеймс Спэйдер, Сэмюэл Л. Джексон.-Описание: Человечество на грани уничтожения. На этот раз людям угрожает Альтрон — искусственный интеллект, ранее созданный для того, чтобы защищать Землю от любых угроз. Однако, главной угрозой он посчитал человечество. Международная организация Щ.И.Т. распалась, и теперь мир не способен справиться с таким мощным врагом, потому люди вновь обращаются за помощью к Величайшим Героям Земли — Мстител
ям. Однако Альтрон слишком силен, и есть большая вероятность, что даже им не удастся остановить начало надвигающейся Эры Альтрона, где нет места для людей.-Релиз от: -Рип от TayTO!-Качество видео: BDRip | Sample
Формат видео: MKV
Видео: 1920x804 at 23.976 fps, x264@L4.1, crf, ~15.0 Mbps avg
Аудио 1: Russian: 48 kHz, AC3, 3/2 (L,C,R,l,r) + LFE ch, ~640.00 kbps avg |Дубляж, Blu-ray CEE|
Аудио 2: Russian: 48 kHz, DTS, 3/2 (L,C,R,l,r) + LFE ch, ~1536 kbps avg |А. Гаврилов|
Аудио 3: Ukrainian: 48 kHz, DTS, 3/2 (L,C,R,l,r) + LFE ch, ~1536.00 kbps avg |Дубляж|
Аудио 4: English: 48 kHz, DTS, 3/2 (L,C,R,l,r) + LFE ch, ~1536.00 kbps avg
Аудио 5: English: 48 kHz, AC3, 2/0 (L,R) ch, ~192.00 kbps avg |Audio Commentary With Director Joss Whedon|
Аудио 6: English: 48 kHz, AC3, 2/0 (L,R) ch, ~320.00 kbps avg |Descriptive|-

Дополнительно

Цитата:
Цитата:

  • Сохранены оригинальные чаптеры как на Blu-ray.

MediaInfo

Код:
Format                      : Matroska
Format version              : Version 4 / Version 2
File size                   : 20.7 GiB
Duration                    : 2h 21mn
Overall bit rate            : 21.0 Mbps
Movie name                  : Avengers: Age of Ultron (2015) - Release for HDCLUB
Encoded date                : UTC 2016-03-07 14:29:08
Writing application         : mkvmerge v6.1.0 ('Old Devil') built on Mar 31 2013 15:21:18
Writing library             : libebml v1.3.0 + libmatroska v1.4.0
Cover                       : Yes
Attachments                 : Cover.png
Video
ID                          : 1
Format                      : AVC
Format/Info                 : Advanced Video Codec
Format profile              : High@L4.1
Format settings, CABAC      : Yes
Format settings, ReFrames   : 5 frames
Codec ID                    : V_MPEG4/ISO/AVC
Duration                    : 2h 21mn
Bit rate                    : 14.9 Mbps
Width                       : 1 920 pixels
Height                      : 804 pixels
Display aspect ratio        : 2.40:1
Frame rate mode             : Constant
Frame rate                  : 23.976 (24000/1001) fps
Color space                 : YUV
Chroma subsampling          : 4:2:0
Bit depth                   : 8 bits
Scan type                   : Progressive
Bits/(Pixel*Frame)          : 0.401
Stream size                 : 14.7 GiB (71%)
Title                       : Avengers: Age of Ultron (2015) - Release for HDCLUB
Writing library             : x264 core 142 r2431+42 c69a006 tMod [8-bit@all X86_64]
Encoding settings           : cabac=1 / ref=5 / deblock=1:-3:-3 / analyse=0x3:0x133 / me=tesa / subme=11 / psy=1 / fade_compensate=0.00 / psy_rd=1.05:0.00 / mixed_ref=1 / me_range=32 / chroma_me=1 / trellis=2 / 8x8dct=1 / cqm=0 / deadzone=21,11 / fast_pskip=0 / chroma_qp_offset=-2 / threads=12 / lookahead_threads=2 / sliced_threads=0 / nr=0 / decimate=0 / interlaced=0 / bluray_compat=0 / constrained_intra=0 / fgo=0 / bframes=8 / b_pyramid=2 / b_adapt=2 / b_bias=0 / direct=3 / weightb=1 / open_gop=0 / weightp=2 / keyint=250 / keyint_min=23 / scenecut=40 / intra_refresh=0 / rc_lookahead=60 / rc=crf / mbtree=0 / crf=15.5000 / qcomp=0.70 / qpmin=0:0:0 / qpmax=69:69:69 / qpstep=4 / vbv_maxrate=62500 / vbv_bufsize=78125 / crf_max=0.0 / nal_hrd=none / filler=0 / ip_ratio=1.24 / pb_ratio=1.18 / aq=1:0.80 / aq-sensitivity=10.00 / aq-factor=1.00:1.00:1.00 / aq2=0 / aq3=0 / zones=68,686,crf=14.5/788,1230,crf=14.5/1372,1540,crf=14.5/2220,2702,crf=14.5/3768,3890,crf=14.5/5152,5171,crf=14.5/5413,5509,crf=14.5/5994,6013,crf=14.5/8382,8399,crf=14.5/8484,8525,crf=14.5/8564,8596,crf=14.5/8899,8929,crf=14.5/9668,9711,crf=14.5/14875,15148,crf=15/15149,15192,crf=14.5/15193,17811,crf=15/22966,23236,crf=15/30871,31111,crf=18/31160,31508,crf=15/31909,32039,crf=15/33468,33480,crf=14.5/44175,44186,crf=14.5/44405,44428,crf=14/44477,44574,crf=15/44751,44757,crf=14/44900,44923,crf=14.5/45310,46011,crf=15/46012,46019,crf=14/46020,46963,crf=15/47180,47514,crf=15/52070,57422,crf=15/58366,58410,crf=14.5/60438,60765,crf=16/62176,62266,crf=15/62678,68870,crf=15/70104,70121,crf=15/70740,71339,crf=15/72225,72607,crf=14.5/72608,72631,crf=14/74225,74233,crf=14/75791,75810,crf=14.5/76139,76299,crf=14.5/76516,76578,crf=14.5/76732,76787,crf=16/77070,77456,crf=16/77457,77469,crf=15/77470,78400,crf=16/78797,78850,crf=15/79712,79734,crf=13/79913,79981,crf=15/82730,82836,crf=14/83361,83372,crf=14/83495,83524,crf=14/84858,84926,crf=18/84927,85036,crf=13/86288,86540,crf=13/86541,87050,crf=16/89307,89664,crf=16/93622,93663,crf=14.5/94208,94298,crf=16/98822,100636,crf=16/103220,103669,crf=16/108820,109116,crf=13/109117,109757,crf=14.5/110330,110481,crf=14/110612,110616,crf=14/110639,110682,crf=13/110695,110705,crf=14/110716,110805,crf=14/110873,111241,crf=14.5/111547,111592,crf=14.5/111909,111917,crf=13/111924,111930,crf=13/114078,114428,crf=16/115070,115135,crf=16/115197,115240,crf=16/115265,115302,crf=16/115362,115430,crf=16/115486,115864,crf=16/117445,117560,crf=16/119988,120069,crf=16/120997,121081,crf=16/121615,121686,crf=16/122792,122802,crf=15/122820,122924,crf=15/124232,125360,crf=16/129303,129600,crf=15/130378,130439,crf=15/142688,142878,crf=14.5/143124,143152,crf=14.5/143234,143264,crf=13/143589,143629,crf=14.5/143673,143754,crf=14.5/143849,144159,crf=14/145923,146037,crf=14.5/146049,146111,crf=13/146648,146681,crf=13/147439,147533,crf=14.5/148255,148296,crf=14.5/149230,149378,crf=15/150134,150336,crf=14.5/150602,150632,crf=14.5/150877,150923,crf=14.5/150988,151021,crf=14.5/158101,158238,crf=14.5/158383,158462,crf=14.5/158766,158903,crf=14.5/161788,161835,crf=14.5/161949,162041,crf=14.5/164664,164769,crf=14.5/165134,165221,crf=14.5/166175,166239,crf=14.5/168610,168617,crf=14/168733,168775,crf=14.5/168810,168852,crf=14.5/169046,169106,crf=14.5/169975,170046,crf=14.5/171949,171996,crf=14.5/177608,177627,crf=14.5/178076,178088,crf=14.5/178286,178306,crf=14.5/178465,178481,crf=14.5/178748,178816,crf=14.5/179902,181997,crf=16/185020,186820,crf=16/188701,191531,crf=14/191532,191590,crf=18/192086,203045,crf=20/203046,203144,crf=14.5
Language                    : English
Default                     : Yes
Forced                      : No
Color range                 : Limited
Matrix coefficients         : BT.709
Audio #1
ID                          : 2
Format                      : AC-3
Format/Info                 : Audio Coding 3
Mode extension              : CM (complete main)
Format settings, Endianness : Big
Codec ID                    : A_AC3
Duration                    : 2h 21mn
Bit rate mode               : Constant
Bit rate                    : 640 Kbps
Channel(s)                  : 6 channels
Channel positions           : Front: L C R, Side: L R, LFE
Sampling rate               : 48.0 KHz
Frame rate                  : 31.250 fps (1536 spf)
Compression mode            : Lossy
Stream size                 : 649 MiB (3%)
Title                       : AC3 5.1 @ 640 kbps - DUB, Blu-ray CEE
Language                    : Russian
Default                     : Yes
Forced                      : No
Audio #2
ID                          : 3
Format                      : DTS
Format/Info                 : Digital Theater Systems
Mode                        : 16
Format settings, Endianness : Big
Codec ID                    : A_DTS
Duration                    : 2h 21mn
Bit rate mode               : Constant
Bit rate                    : 1 509 Kbps
Channel(s)                  : 6 channels
Channel positions           : Front: L C R, Side: L R, LFE
Sampling rate               : 48.0 KHz
Frame rate                  : 93.750 fps (512 spf)
Bit depth                   : 24 bits
Compression mode            : Lossy
Stream size                 : 1.49 GiB (7%)
Default                     : No
Forced                      : No
Audio #3
ID                          : 4
Format                      : DTS
Format/Info                 : Digital Theater Systems
Mode                        : 16
Format settings, Endianness : Big
Codec ID                    : A_DTS
Duration                    : 2h 21mn
Bit rate mode               : Constant
Bit rate                    : 1 509 Kbps
Channel(s)                  : 6 channels
Channel positions           : Front: L C R, Side: L R, LFE
Sampling rate               : 48.0 KHz
Frame rate                  : 93.750 fps (512 spf)
Bit depth                   : 24 bits
Compression mode            : Lossy
Stream size                 : 1.49 GiB (7%)
Title                       : DTS 5.1 @ 1536 kbps - DUB, Disney / Buena Vista
Language                    : Ukrainian
Default                     : No
Forced                      : No
Audio #4
ID                          : 5
Format                      : DTS
Format/Info                 : Digital Theater Systems
Mode                        : 16
Format settings, Endianness : Big
Codec ID                    : A_DTS
Duration                    : 2h 21mn
Bit rate mode               : Constant
Bit rate                    : 1 509 Kbps
Channel(s)                  : 6 channels
Channel positions           : Front: L C R, Side: L R, LFE
Sampling rate               : 48.0 KHz
Frame rate                  : 93.750 fps (512 spf)
Bit depth                   : 24 bits
Compression mode            : Lossy
Delay relative to video     : 11ms
Stream size                 : 1.49 GiB (7%)
Title                       : DTS 5.1 @ 1536 kbps
Language                    : English
Default                     : No
Forced                      : No
Audio #5
ID                          : 6
Format                      : AC-3
Format/Info                 : Audio Coding 3
Mode extension              : CM (complete main)
Format settings, Endianness : Big
Codec ID                    : A_AC3
Duration                    : 2h 21mn
Bit rate mode               : Constant
Bit rate                    : 192 Kbps
Channel(s)                  : 2 channels
Channel positions           : Front: L R
Sampling rate               : 48.0 KHz
Frame rate                  : 31.250 fps (1536 spf)
Compression mode            : Lossy
Stream size                 : 195 MiB (1%)
Title                       : AC3 2.0 @ 192 kbps - Audio Commentary With Director Joss Whedon
Language                    : English
Default                     : No
Forced                      : No
Audio #6
ID                          : 7
Format                      : AC-3
Format/Info                 : Audio Coding 3
Format profile              : Dolby Digital
Mode extension              : CM (complete main)
Format settings, Endianness : Big
Codec ID                    : A_AC3
Duration                    : 2h 21mn
Bit rate mode               : Constant
Bit rate                    : 320 Kbps
Channel(s)                  : 2 channels
Channel positions           : Front: L R
Sampling rate               : 48.0 KHz
Frame rate                  : 31.250 fps (1536 spf)
Compression mode            : Lossy
Stream size                 : 324 MiB (2%)
Title                       : AC3 2.0 @ 320 kbps - Descriptive
Language                    : English
Default                     : No
Forced                      : No
Text #1
ID                          : 8
Format                      : UTF-8
Codec ID                    : S_TEXT/UTF8
Codec ID/Info               : UTF-8 Plain Text
Title                       : Forced, iTunes
Language                    : Russian
Default                     : Yes
Forced                      : No
Text #2
ID                          : 9
Format                      : UTF-8
Codec ID                    : S_TEXT/UTF8
Codec ID/Info               : UTF-8 Plain Text
Title                       : iTunes
Language                    : Russian
Default                     : No
Forced                      : No
Text #3
ID                          : 10
Format                      : UTF-8
Codec ID                    : S_TEXT/UTF8
Codec ID/Info               : UTF-8 Plain Text
Title                       : iTunes
Language                    : Ukrainian
Default                     : No
Forced                      : No
Text #4
ID                          : 11
Format                      : UTF-8
Codec ID                    : S_TEXT/UTF8
Codec ID/Info               : UTF-8 Plain Text
Title                       : Forced, iTunes
Language                    : English
Default                     : No
Forced                      : No
Text #5
ID                          : 12
Format                      : UTF-8
Codec ID                    : S_TEXT/UTF8
Codec ID/Info               : UTF-8 Plain Text
Title                       : iTunes
Language                    : English
Default                     : No
Forced                      : No
Menu
00:00:00.000                : en:Battle for Loki's Scepter
00:12:15.192                : en:Birth of Ultron
00:21:23.949                : en:Avengers House Party
00:33:01.771                : en:Attack Aftermath
00:36:07.623                : en:Ultron Meers the Twins
00:42:00.768                : en:Mind Games
00:52:44.744                : en:Hulk vs. Hulkbuster
00:59:01.871                : en:The Safe House
01:15:51.088                : en:Cradle Robbing
01:27:08.598                : en:Birthof the Vision
01:36:44.757                : en:The Battle of Sokovia
01:54:35.326                : en:"Is That the Best You Can Do?"
02:06:27.580                : en:The New Avengers
02:11:08.026                : en:End Credits

Скриншоты


_________________
Показать сообщения:    

Текущее время: Сегодня 13:57

Часовой пояс: GMT



Вы не можете начинать темы
Вы не можете отвечать на сообщения
Вы не можете редактировать свои сообщения
Вы не можете удалять свои сообщения
Вы не можете голосовать в опросах
Вы не можете прикреплять файлы к сообщениям
Вы не можете скачивать файлы