Важное объявление!
У Нас Все раздачи мультитрекерные, при нуле пиров в релизах, можете смело вставать на закачку!
 
Автор Сообщение

HUNTER

Стаж:
4 года 4 месяца
Сообщений:
56733

Репутация: 101

[+] [-]
Вне форума [Профиль] [ЛС]

Мстители / The Avengers
Страна: США
Студия: Warner Bros. Pictures, Jerry Weintraub Productions
Жанр: фантастика, боевик, триллер, приключения
Год выпуска: 1998
Продолжительность: 01:29:23
Перевод: Профессиональный (дублированный) Варус Видео
Перевод 2: Авторский (одноголосый закадровый) Юрий Живов
Cубтитры: русские, английские
Оригинальная аудиодорожка: английский
Режиссер: Джеримайя С. Чечик / Jeremiah S. Chechik
В ролях: Рэйф Файнс, Ума Турман, Шон Коннери, Патрик Макни, Джим Бродбент, Фиона Шоу, Эдди Иззард, Айлин Эткинс, Джон Вуд, Кармен Эджого
Описание: Мстители пришли к нам из знаменитого телесериала 60 — х годов. Элегантный Джон Стид в шляпе — котелке и стильная, с кошачьей грацией Эмма Пил. Они пытаются остановить коварного злодея сэра Августа Де Винтера, владеющего секретом управления погодой.
Замысел преступника — покорить мир, ввергнув его в холод и стужу… Фантастические трюки, масштабные декорации, эффектные костюмы Эммы, — все это в сочных красках, под музыку Шиннед О`Коннор и Энни Леннокс.
Кинопоиск|Imdb|Сэмпл
Тип релиза: BDRip 1080p
Контейнер: MKV
Видео: MPEG4 Video (H264) 1920x1080 23.976fps 13.5 Mbps
Аудио: Russian AC-3 6 ch 48.0 KHz 384 Kbps
Аудио 2: Russian AC-3 2 ch 48.0 KHz 192 Kbps
Аудио 3: English DTS 6 ch 48.0 KHz 1 509 Kbps
Формат субтитров: softsub (SRT)

MediaInfo

General
Unique ID : 200334553505266452372788604044704361092 (0x96B708139A779A03A6AEDF3ED2DA2A84)
Complete name : C:\Users\Вика\Desktop\The.Avengers.1998.BDRip.1080p.mkv
Format : Matroska
Format version : Version 4 / Version 2
File size : 9.73 GiB
Duration : 1h 29mn
Overall bit rate : 15.6 Mbps
Encoded date : UTC 2014-09-30 07:04:46
Writing application : mkvmerge v6.9.1 ('Blue Panther') 64bit built on Apr 18 2014 18:23:38
Writing library : libebml v1.3.0 + libmatroska v1.4.1
Video
ID : 1
Format : AVC
Format/Info : Advanced Video Codec
Format profile : High@L4.1
Format settings, CABAC : Yes
Format settings, ReFrames : 4 frames
Codec ID : V_MPEG4/ISO/AVC
Duration : 1h 29mn
Bit rate : 13.5 Mbps
Width : 1 920 pixels
Height : 1 080 pixels
Display aspect ratio : 16:9
Frame rate mode : Constant
Frame rate : 23.976 fps
Color space : YUV
Chroma subsampling : 4:2:0
Bit depth : 8 bits
Scan type : Progressive
Bits/(Pixel*Frame) : 0.272
Stream size : 8.23 GiB (85%)
Title : MPEG-4 x264@High Profile L4.1, 24/1.001 fps @ 13500 kbps
Writing library : x264 core 142 r2479 dd79a61
Encoding settings : cabac=1 / ref=4 / deblock=1:-3:-3 / analyse=0x3:0x133 / me=umh / subme=11 / psy=1 / psy_rd=1.00:0.00 / mixed_ref=1 / me_range=32 / chroma_me=1 / trellis=2 / 8x8dct=1 / cqm=0 / deadzone=21,11 / fast_pskip=0 / chroma_qp_offset=-2 / threads=12 / lookahead_threads=1 / sliced_threads=0 / nr=0 / decimate=0 / interlaced=0 / bluray_compat=0 / constrained_intra=0 / bframes=6 / b_pyramid=2 / b_adapt=2 / b_bias=0 / direct=3 / weightb=1 / open_gop=0 / weightp=2 / keyint=240 / keyint_min=23 / scenecut=40 / intra_refresh=0 / rc_lookahead=60 / rc=2pass / mbtree=1 / bitrate=13500 / ratetol=1.0 / qcomp=0.60 / qpmin=0 / qpmax=69 / qpstep=4 / cplxblur=20.0 / qblur=0.5 / vbv_maxrate=45000 / vbv_bufsize=45000 / nal_hrd=none / filler=0 / ip_ratio=1.40 / aq=1:0.60
Language : English
Default : Yes
Forced : No
DURATION : 01:29:22.608000000
NUMBER_OF_FRAMES : 128574
NUMBER_OF_BYTES : 9045205605
_STATISTICS_WRITING_APP : mkvmerge v7.2.0 ('On Every Street') 64bit built on Sep 13 2014 15:52:10
_STATISTICS_WRITING_DATE_UTC : 2014-09-25 05:27:04
_STATISTICS_TAGS : BPS DURATION NUMBER_OF_FRAMES NUMBER_OF_BYTES
Audio #1
ID : 2
Format : AC-3
Format/Info : Audio Coding 3
Mode extension : CM (complete main)
Format settings, Endianness : Big
Codec ID : A_AC3
Duration : 1h 29mn
Bit rate mode : Constant
Bit rate : 384 Kbps
Channel count : 6 channels
Channel positions : Front: L C R, Side: L R, LFE
Sampling rate : 48.0 KHz
Bit depth : 16 bits
Compression mode : Lossy
Stream size : 246 MiB (2%)
Title : Dub Варус Видео
Language : Russian
Default : Yes
Forced : No
Audio #2
ID : 3
Format : AC-3
Format/Info : Audio Coding 3
Mode extension : CM (complete main)
Format settings, Endianness : Big
Codec ID : A_AC3
Duration : 1h 29mn
Bit rate mode : Constant
Bit rate : 192 Kbps
Channel count : 2 channels
Channel positions : Front: L R
Sampling rate : 48.0 KHz
Bit depth : 16 bits
Compression mode : Lossy
Stream size : 123 MiB (1%)
Title : AVO Живов
Language : Russian
Default : No
Forced : No
Audio #3
ID : 4
Format : DTS
Format/Info : Digital Theater Systems
Mode : 16
Format settings, Endianness : Big
Codec ID : A_DTS
Duration : 1h 29mn
Bit rate mode : Constant
Bit rate : 1 509 Kbps
Channel count : 6 channels
Channel positions : Front: L C R, Side: L R, LFE
Sampling rate : 48.0 KHz
Bit depth : 24 bits
Compression mode : Lossy
Stream size : 965 MiB (10%)
Language : English
Default : No
Forced : No
Text #1
ID : 5
Format : UTF-8
Codec ID : S_TEXT/UTF8
Codec ID/Info : UTF-8 Plain Text
Language : Russian
Default : No
Forced : No
Text #2
ID : 6
Format : UTF-8
Codec ID : S_TEXT/UTF8
Codec ID/Info : UTF-8 Plain Text
Language : English
Default : No
Forced : No
Menu
00:00:00.000 : en:00:00:00.000
00:09:14.846 : en:00:09:14.846
00:18:00.955 : en:00:18:00.955
00:31:29.513 : en:00:31:29.513
00:39:16.604 : en:00:39:16.604
00:49:35.222 : en:00:49:35.222
00:58:49.443 : en:00:58:49.443
01:10:07.328 : en:01:10:07.328
01:19:55.624 : en:01:19:55.624

Скриншоты


_________________
Показать сообщения:    

Текущее время: Сегодня 21:07

Часовой пояс: GMT



Вы не можете начинать темы
Вы не можете отвечать на сообщения
Вы не можете редактировать свои сообщения
Вы не можете удалять свои сообщения
Вы не можете голосовать в опросах
Вы не можете прикреплять файлы к сообщениям
Вы не можете скачивать файлы