Важное объявление!
У Нас Все раздачи мультитрекерные, при нуле пиров в релизах, можете смело вставать на закачку!
 
Автор Сообщение

HUNTER

Стаж:
4 года 4 месяца
Сообщений:
56822

Репутация: 101

[+] [-]
Вне форума [Профиль] [ЛС]

Мстители - Могучие Герои Земли / The Avengers - Earth's Mightiest Heroes
Сезон: 2, серии: 1-4 из 26
Год выпуска: 2012
Страна: США
Жанр: Мультсериал, Фантастика, Боевик
Продолжительность: ~ 00:23:00
Озвучивание: Любительское (одноголосое закадровое) ZM
Перевод на русский: Tinkerer (1-2), Aggie32 (3-XX)

Режиссёр: Ciro Nieli, Vinton Heuck
Роли озвучивали: Рик Д. Вассерман, Эрик Лумис, Фил ЛаМарр, Уолли Вингерт, Коллин О’Шонесси, Алекс Десерт, Фред Татаскьор, Гэбриел Манн, Кэри Уолгрен, Робин Аткин Даунс

Описание: Неизвестная сила наносит удар по четырем тюрьмам для сверхлюдей, и десятки опаснейших суперзлодеев вырываются на свободу, самые могучие супергерои объединяются в альянс под названием Мстители, чтобы вернуть вырвавшееся на свободу зло за решетку и остановить Гравитрона, который кстати и стоял за нападением на тюрьмы. В первых эпизодах Мстители предстанут в классическом составе: Человек-Муравей, Халк, Железный человек, Тор и Оса. Капитан Америка, Черная Пантера и Соколиный Глаз присоединятся к команде уже на протяжении сериала.

Сезон 1
Качество: WEB-DLRip (Исходник)
Формат: AVI
Видео: XviD, 720x400 (1.80:1), 23.976 fps, ~1650 kbps avg, 0.24 bit/pixel
Аудио: 48 kHz, AC3 Dolby Digital, 2/0 (L,R) ch, ~192 kbps
Субтитры: отсутствуют

Внимание!!! Раздача ведётся путём добавления новых серий

Внимание! Раздача ведётся путём добавления новых серий; при каждом добавлении создётся новый торрент. Чтобы начать докачку новой серии, пользователям необходимо сделать следующее:
(1) остановить скачивание
(2) удалить старый торрент у себя из клиента (старые серии удалять не надо)
(3) скачать новый торрент и запустить его у себя в клиенте вместо старого, при этом указать клиенту путь в старую папку куда и должно происходить скачивание новых серий. Ваш клиент при этом должен произвести хеширование (проверку) старой папки (если не производит сам - помогите ему сделать это), и будет докачивать только те серии, которых у вас ещё нет. Старые серии при этом не удаляются, а продолжают раздаваться! Eсли вы уже удалили старые серии, то предотвратить повторную закачку старых серий можно, отжав галочку в соответсвующих местах при запуске нового торрента.
По возможности, желательно не удалять старые серии как можно дольше, чтобы релизёр не столько продолжал раздавать старые серии, а смог сконцентрироваться на новых.

MediaInfo

eneral
Complete name : F:\The Avengers - Earth's Mightiest Heroes Season 2 [WEB.DLRip]\The.Avengers.Earths.Mightiest.Heroes.S02E01.The Private.War.of.Doctor.Doom.WEB-DLRip[ZM-SHOW].avi
Format : AVI
Format/Info : Audio Video Interleave
File size : 300 MiB
Duration : 22mn 36s
Overall bit rate : 1 857 Kbps
Writing application : Lavf52.94.0
Video
ID : 0
Format : MPEG-4 Visual
Format profile : Advanced Simple@L5
Format settings, BVOP : 2
Format settings, QPel : No
Format settings, GMC : No warppoints
Format settings, Matrix : Default (H.263)
Muxing mode : Packed bitstream
Codec ID : XVID
Codec ID/Hint : XviD
Duration : 22mn 36s
Bit rate : 1 655 Kbps
Width : 720 pixels
Height : 400 pixels
Display aspect ratio : 16:9
Frame rate : 23.976 fps
Color space : YUV
Chroma subsampling : 4:2:0
Bit depth : 8 bits
Scan type : Progressive
Compression mode : Lossy
Bits/(Pixel*Frame) : 0.239
Stream size : 268 MiB (89%)
Writing library : XviD 57
Audio
ID : 1
Format : AC-3
Format/Info : Audio Coding 3
Mode extension : CM (complete main)
Codec ID : 2000
Duration : 22mn 36s
Bit rate mode : Constant
Bit rate : 192 Kbps
Channel(s) : 2 channels
Channel positions : Front: L R
Sampling rate : 48.0 KHz
Bit depth : 16 bits
Compression mode : Lossy
Stream size : 31.0 MiB (10%)
Alignment : Aligned on interleaves
Interleave, duration : 32 ms (0.77 video frame)

Скриншоты

Релиз подготовлен группой ZM-SHOW

_________________
Показать сообщения:    

Текущее время: Сегодня 08:01

Часовой пояс: GMT



Вы не можете начинать темы
Вы не можете отвечать на сообщения
Вы не можете редактировать свои сообщения
Вы не можете удалять свои сообщения
Вы не можете голосовать в опросах
Вы не можете прикреплять файлы к сообщениям
Вы не можете скачивать файлы