Важное объявление!
У Нас Все раздачи мультитрекерные, при нуле пиров в релизах, можете смело вставать на закачку!
 
Автор Сообщение

димитри37

Стаж:
3 года 8 месяцев
Сообщений:
1237

Репутация: 127

[+] [-]
Вне форума [Профиль] [ЛС]

--Моя Борьба
Mein Kampf
--
Название: Моя Борьба
Оригинальное название: Mein Kampf
Страна: Австрия, Германия, Швейцария
Производство: Schiwago Film, Dor Film, Hugofilm
Год: 2009
Продолжительность: 01:46:05
Жанр: драма, комедия, ...
Перевод: Профессиональный (многоголосый закадровый), телеканал .
Оригинальная аудиодорожка: Немецкий.
Субтитры: нет.--Режиссер: Урс Одерматт / Urs Odermatt
Сценарий: Мартин Левальд, Урс Одерматт, Георг Табори, ...
Продюсер: Оливер Бербен, Вольфганг Бергман, Альберто Чолле, ...
Оператор: Джо Молиторис
Композитор: Энис Роттхофф
Художник: Карола Гостер, Томас Ола
Монтаж: Клаудио Сиа, Лило Гербер
В ролях:
Гёц Георге, Том Шиллинг, Анна Унтербергер, Бернд Биркхан, Вольф Бахофнер, Элизабет Орт, Карин Нойхаузер, Симон Шварц, Пол Матич, Хеннинг Пекер, ...--Описание:
Экранизация одноименной пьесы популярного венгерского драматурга Георга Табори. Чернейшая комедия, рассказывающая о молодых годах Адольфа Гитлера-Шикльгрубера.
Юный Адольф приезжает в Вену, где заводит дружбу с престарелым евреем Шломо Херцлем. Гитлер и не предполагает, что общается с лютым расовым врагом и следует всем советам и пожеланиям нового знакомца.--Доп. информация:
• Звук записан через bandicam и синхронизирован автором темы.
• Постер к кинофильму был переведён на русский язык автором темы.
• По вопросам, связанным с переводом постеров на русский язык пишите, пожалуйста, в ЛС.--Сэмпл: http://multi-up.com/916727
Качество: DVDRip
Формат: AVI
Видео-кодек: XviD
Аудио-кодек: AC3
Видео: 720x384 (1.88:1), 25 fps, XviD MPEG-4 ~1707 kbps avg, 0.25 bit/pixel
Аудио 1: 48 kHz, AC3 Dolby Digital, 2/0 (L,R) ch, ~128.00 kbps |МVO| телеканал .
Аудио 2: 48 kHz, AC3 Dolby Digital, 2/0 (L,R) ch, ~128.00 kbps |Deutsch|

MedioInfo

Общее
Полное имя : 2009 - Моя борьба - реж. Урс Одерматт (драма).avi
Формат : AVI
Формат/Информация : Audio Video Interleave
Размер файла : 1,47 Гбайт
Продолжительность : 1 ч. 46 м.
Общий поток : 1979 Кбит/сек
Программа кодирования : VirtualDubMod 1.5.4.1 (build 2178/release)
Библиотека кодирования : VirtualDubMod build 2178/release
Видео
Идентификатор : 0
Формат : MPEG-4 Visual
Профиль формата : Advanced Simple@L5
Параметр BVOP формата : 1
Параметр QPel формата : Нет
Параметр GMC формата : Без точки перехода
Параметр матрицы формата : Выборочная
Идентификатор кодека : XVID
Идентификатор кодека/Подсказка : XviD
Продолжительность : 1 ч. 46 м.
Битрейт : 1709 Кбит/сек
Ширина : 720 пикс.
Высота : 384 пикс.
Соотношение сторон : 1,875
Частота кадров : 25,000 кадр/сек
Цветовое пространство : YUV
Подвыборка цветности : 4:2:0
Битовая глубина : 8 бит
Тип развёртки : Прогрессивная
Метод сжатия : С потерями
Бит/(Пиксели*Кадры) : 0.247
Размер потока : 1,27 Гбайт (86%)
Библиотека кодирования : XviD 63
Аудио #1
Идентификатор : 1
Формат : AC-3
Формат/Информация : Audio Coding 3
Расширение режима : CM (complete main)
Идентификатор кодека : 2000
Продолжительность : 1 ч. 46 м.
Вид битрейта : Постоянный
Битрейт : 128 Кбит/сек
Канал(ы) : 2 канала(ов)
Расположение каналов : Front: L R
Частота : 48,0 КГц
Битовая глубина : 16 бит
Метод сжатия : С потерями
Размер потока : 97,1 Мбайт (6%)
Выравнивание : Разделение по промежуткам
Продолжительность промежутка : 40 мс. (1,00 видеокадр)
Время предзагрузки промежутка : 500 ms
Аудио #2
Идентификатор : 2
Формат : AC-3
Формат/Информация : Audio Coding 3
Расширение режима : CM (complete main)
Идентификатор кодека : 2000
Продолжительность : 1 ч. 46 м.
Вид битрейта : Постоянный
Битрейт : 128 Кбит/сек
Канал(ы) : 2 канала(ов)
Расположение каналов : Front: L R
Частота : 48,0 КГц
Битовая глубина : 16 бит
Метод сжатия : С потерями
Размер потока : 97,1 Мбайт (6%)
Выравнивание : Разделение по промежуткам
Продолжительность промежутка : 40 мс. (1,00 видеокадр)
Время предзагрузки промежутка : 500 ms

Скриншот c названием фильма

Cкриншот

Постер

дежурный_по_апрелю

Стаж:
4 года 2 месяца
Сообщений:
45

Репутация: 11

[+] [-]
Вне форума [Профиль] [ЛС]

Облом, я то думал этот фильм автобиографический, по книге Гитлера "Моя борьба" а это просто художественный вымысел, причём не интересный ac

_________________

Что наша жизнь - игра, Соло... И не прожить ее, не сыграть без обмана и фальши. Но ИГРАТЬ нужно... bu
Показать сообщения:    

Текущее время: Сегодня 17:55

Часовой пояс: GMT



Вы не можете начинать темы
Вы не можете отвечать на сообщения
Вы не можете редактировать свои сообщения
Вы не можете удалять свои сообщения
Вы не можете голосовать в опросах
Вы не можете прикреплять файлы к сообщениям
Вы не можете скачивать файлы