Важное объявление!
У Нас Все раздачи мультитрекерные, при нуле пиров в релизах, можете смело вставать на закачку!
 
Автор Сообщение

димитри37

Стаж:
3 года 8 месяцев
Сообщений:
1237

Репутация: 127

[+] [-]
Вне форума [Профиль] [ЛС]

Мотыльки--
Год выпуска: 2013
Производство: film.ua
Жанр: драма
Продолжительность: ~ 00:50:00 серия
Субтитры: Украинские (вшитые) (остатки)
Режиссёр: Виталий Воробьёв
В ролях: Юрий Борисов, Мария Поезжаева, Евгения Лоза, Андрей Казаков, Юрий Назаров, Юлия Рутберг, Артём Ткаченко, Максим Заусалин, Тимур Боканча, Олег Примогенов, Станислав Щёкин, Семен Штейнберг, Наталья Васько, Александр Игнатуша, Евгений Ефремов, Азамат Нигманов, Евгений Сангаджиев, Дарья Питерова
Описание: История любви выпускницы старших классов Али и солдата срочной службы Паши, которая разворачивается на фоне одной из самых масштабных техногенных катастроф XX века, Чернобыльской аварии. Им суждено было встретиться в конце апреля 1986 года в городе Припять. Словно мотыльки, стремящиеся к огню, они летели навстречу своим чувствам, не замечая ничего вокруг...
Сэмпл: http://multi-up.com/860243
Качество: SATRip
Формат: MKV
Видео кодек: H.264
Аудио кодек: AC3
Видео: MPEG4 Video (H264), 704x384 (1.85:1), ~ 1580 kbps, 25.00fps, 0.234 bit/pixel
Аудио: 48 kHz, AC3 Dolby Digital, 2/0 (L,R) ch, ~192.00 kbps
Исходник: DVB by
Рип:Реклама отсутствует

h264 log

---[NoImage] x264 [info]: frame I:536 Avg QP:14.93 size: 39514
---[NoImage] x264 [info]: frame P:19311 Avg QP:18.09 size: 17058
---[NoImage] x264 [info]: frame B:52486 Avg QP:22.31 size: 4205
---[NoImage] x264 [info]: consecutive B-frames: 5.8% 2.5% 24.8% 10.5% 5.1% 49.4% 0.5% 0.9% 0.2% 0.2%
---[NoImage] x264 [info]: mb I I16..4: 5.4% 72.9% 21.7%
---[NoImage] x264 [info]: mb P I16..4: 1.3% 13.7% 2.1% P16..4: 33.9% 22.2% 17.4% 1.3% 0.4% skip: 7.7%
---[NoImage] x264 [info]: mb B I16..4: 0.1% 0.9% 0.2% B16..8: 36.8% 12.1% 3.3% direct: 7.4% skip:39.3% L0:36.4% L1:39.1% BI:24.4%
---[NoImage] x264 [info]: 8x8 transform intra:78.3% inter:64.4%
---[NoImage] x264 [info]: direct mvs spatial:95.9% temporal:4.1%
---[NoImage] x264 [info]: coded y,uvDC,uvAC intra: 85.0% 81.4% 53.3% inter: 27.3% 22.0% 3.5%
---[NoImage] x264 [info]: i16 v,h,dc,p: 34% 15% 11% 40%
---[NoImage] x264 [info]: i8 v,h,dc,ddl,ddr,vr,hd,vl,hu: 18% 13% 13% 7% 9% 10% 9% 11% 11%
---[NoImage] x264 [info]: i4 v,h,dc,ddl,ddr,vr,hd,vl,hu: 19% 10% 6% 8% 12% 14% 10% 11% 10%
---[NoImage] x264 [info]: i8c dc,h,v,p: 38% 25% 23% 13%
---[NoImage] x264 [info]: Weighted P-Frames: Y:3.7% UV:1.7%
---[NoImage] x264 [info]: ref P L0: 55.8% 15.9% 14.0% 3.8% 3.1% 2.1% 2.0% 1.2% 1.4% 0.7% 0.0%
---[NoImage] x264 [info]: ref B L0: 85.6% 8.6% 2.5% 1.2% 0.8% 0.7% 0.4% 0.2%
---[NoImage] x264 [info]: ref B L1: 95.5% 4.5%
---[NoImage] x264 [info]: kb/s:1579.63

MI

General
Complete name : \Motylki.2013.SATRip.AVC\Motylki.2013_2.seriya.mkv
Format : Matroska
Format version : Version 2
File size : 629 MiB
Duration : 49mn 32s
Overall bit rate : 1 774 Kbps
Encoded date : UTC 2013-04-28 21:03:14
Writing application : mkvmerge v5.8.0 ('No Sleep / Pillow') built on Sep 2 2012 15:37:04
Writing library : libebml v1.2.3 + libmatroska v1.3.0
Video
ID : 1
Format : AVC
Format/Info : Advanced Video Codec
Format profile : High@L4.1
Format settings, CABAC : Yes
Format settings, ReFrames : 9 frames
Codec ID : V_MPEG4/ISO/AVC
Duration : 49mn 32s
Bit rate : 1 580 Kbps
Width : 704 pixels
Height : 384 pixels
Display aspect ratio : 1.85:1
Frame rate mode : Constant
Frame rate : 25.000 fps
Color space : YUV
Chroma subsampling : 4:2:0
Bit depth : 8 bits
Scan type : Progressive
Bits/(Pixel*Frame) : 0.234
Stream size : 548 MiB (87%)
Writing library : x264 core 130 r2273 b3065e6
Encoding settings : cabac=1 / ref=9 / deblock=1:-3:-3 / analyse=0x3:0x133 / me=umh / subme=10 / psy=1 / psy_rd=1.00:0.10 / mixed_ref=1 / me_range=32 / chroma_me=1 / trellis=2 / 8x8dct=1 / cqm=0 / deadzone=21,11 / fast_pskip=1 / chroma_qp_offset=-3 / threads=6 / lookahead_threads=1 / sliced_threads=0 / nr=0 / decimate=1 / interlaced=0 / bluray_compat=0 / constrained_intra=0 / bframes=8 / b_pyramid=2 / b_adapt=2 / b_bias=0 / direct=3 / weightb=1 / open_gop=0 / weightp=2 / keyint=250 / keyint_min=25 / scenecut=40 / intra_refresh=0 / rc_lookahead=40 / rc=2pass / mbtree=1 / bitrate=1580 / ratetol=1.0 / qcomp=0.60 / qpmin=10 / qpmax=61 / qpstep=4 / cplxblur=20.0 / qblur=0.5 / vbv_maxrate=62500 / vbv_bufsize=78125 / nal_hrd=none / ip_ratio=1.40 / aq=1:1.00
Default : Yes
Forced : No
Audio
ID : 2
Format : AC-3
Format/Info : Audio Coding 3
Mode extension : CM (complete main)
Format settings, Endianness : Big
Codec ID : A_AC3
Duration : 49mn 32s
Bit rate mode : Constant
Bit rate : 192 Kbps
Channel(s) : 2 channels
Channel positions : Front: L R
Sampling rate : 48.0 KHz
Bit depth : 16 bits
Compression mode : Lossy
Stream size : 68.0 MiB (11%)
Language : Russian
Default : Yes
Forced : No

Скриншоты

Показать сообщения:    

Текущее время: Сегодня 22:02

Часовой пояс: GMT



Вы не можете начинать темы
Вы не можете отвечать на сообщения
Вы не можете редактировать свои сообщения
Вы не можете удалять свои сообщения
Вы не можете голосовать в опросах
Вы не можете прикреплять файлы к сообщениям
Вы не можете скачивать файлы