Важное объявление!
У Нас Все раздачи мультитрекерные, при нуле пиров в релизах, можете смело вставать на закачку!
 
Автор Сообщение

HUNTER

Стаж:
4 года 4 месяца
Сообщений:
56755

Репутация: 101

[+] [-]
Вне форума [Профиль] [ЛС]

Мотель / The Bag Man

-
-Страна: США
Студия: Cinedigm, Red Granite Pictures, TinRes Entertainment
Жанр: триллер, криминал
Год выпуска: 2014
Продолжительность: 01:48:39--Перевод: Любительский (двухголосый закадровый) den904 & DeadSno по переводу Janetta
Cубтитры: русские (Janetta), английские SDH
Оригинальная аудиодорожка: английский--Режиссер: Дэвид Гровик / David Grovic
В ролях: Роберт Де Ниро, Джон Кьюсак, Ребекка Да Коста, Криспин Гловер, Доминик Пёрселл, Стикки Фингаз, Мартин Клебба, Дэвид Шамбрис, Чезз Менендес, Йен Маклафлин--Описание: Наемный убийца Джек Стаффорд получает несложное задание: приехать в заштатный мотель в 300 милях от Питтсбурга, получить сумку с таинственным содержимым и оставаться в номере, пока за грузом не приедут. Условие одно: ни при каких обстоятельствах не заглядывать внутрь сумки. Но поручение оказывается простым лишь на первый взгляд. Вскоре киллер понимает, что за доверенным ему предметом охотятся коррумпированные агенты ФБР, продажные полицейские, провинциальные гангстеры и кровожадный карлик-цыган из Сербии. И каждый хочет всадить в Джека пулю. Число жертв растет на глазах, и дожить до рассвета смогут далеко не все постояльцы мотеля.--imdb | kinopoisk | Сэмпл | | --Тип релиза: BDRip 720p [The Bag Man 2014 720p BluRay DTS x264-CtrlHD]
Контейнер: MKV
Видео: MPEG-4 AVC / 5500 kbps / 1280x534 / 23,976 fps / 2,40:1 / High Profile 4.1
Аудио 1: Russian AC3 / 5.1 / 48 kHz / 640 kbps / 16 bits |den904 & DeadSno|
Аудио 2: English AC3 / 5.1 / 48 kHz / 640 kbps / 16 bits |original|
Формат субтитров: softsub [SRT]

MediaInfo

Код:
Общее
Уникальный идентификатор                 : 193361817719334608380264628884606032684 (0x917821A8FAE615018E772D06A2B01B2C)
Полное имя                               : G:\HD\Мотель.2014.BDRip.(720p).mkv
Формат                                   : Matroska
Версия формата                           : Version 4 / Version 2
Размер файла                             : 5,15 Гбайт
Продолжительность                        : 1 ч. 48 м.
Общий поток                              : 6780 Кбит/сек
Дата кодирования                         : UTC 2014-07-14 17:47:42
Программа кодирования                    : mkvmerge v7.0.0 ('Where We Going') 64bit built on Jun  9 2014 15:16:27
Библиотека кодирования                   : libebml v1.3.0 + libmatroska v1.4.1
Attachment                               : Yes
Видео
Идентификатор                            : 1
Формат                                   : AVC
Формат/Информация                        : Advanced Video Codec
Профиль формата                          : High@L4.1
Параметр CABAC формата                   : Да
Параметр ReFrames формата                : 12 кадров
Идентификатор кодека                     : V_MPEG4/ISO/AVC
Продолжительность                        : 1 ч. 48 м.
Битрейт                                  : 5500 Кбит/сек
Ширина                                   : 1280 пикселей
Высота                                   : 534 пикселя
Соотношение сторон                       : 2,40:1
Режим частоты кадров                     : Постоянный
Частота кадров                           : 23,976 кадра/сек
Цветовое пространство                    : YUV
Субдискретизация насыщенности            : 4:2:0
Битовая глубина                          : 8 бит
Тип развёртки                            : Прогрессивная
Бит/(Пиксели*Кадры)                      : 0.336
Размер потока                            : 4,07 Гбайт (79%)
Заголовок                                : The Bag Man 2014 720p BluRay DTS x264-CtrlHD
Библиотека кодирования                   : x264 core 133 r2334 a3ac64b
Настройки программы                      : cabac=1 / ref=12 / deblock=1:-3:-3 / analyse=0x3:0x113 / me=tesa / subme=11 / psy=1 / psy_rd=1.10:0.00 / mixed_ref=1 / me_range=32 / chroma_me=1 / trellis=2 / 8x8dct=1 / cqm=0 / deadzone=21,11 / fast_pskip=0 / chroma_qp_offset=-4 / threads=12 / lookahead_threads=2 / sliced_threads=0 / nr=0 / decimate=0 / interlaced=0 / bluray_compat=0 / constrained_intra=0 / bframes=8 / b_pyramid=2 / b_adapt=2 / b_bias=0 / direct=3 / weightb=1 / open_gop=0 / weightp=2 / keyint=250 / keyint_min=23 / scenecut=40 / intra_refresh=0 / rc=2pass / mbtree=0 / bitrate=5500 / ratetol=1.0 / qcomp=0.65 / qpmin=0 / qpmax=69 / qpstep=4 / cplxblur=20.0 / qblur=0.5 / ip_ratio=1.20 / pb_ratio=1.30 / aq=1:0.85
Язык                                     : English
Default                                  : Да
Forced                                   : Нет
Аудио #1
Идентификатор                            : 2
Формат                                   : AC-3
Формат/Информация                        : Audio Coding 3
Расширение режима                        : CM (complete main)
Параметр Endianness формата              : Big
Идентификатор кодека                     : A_AC3
Продолжительность                        : 1 ч. 48 м.
Вид битрейта                             : Постоянный
Битрейт                                  : 640 Кбит/сек
Каналы                                   : 6 каналов
Расположение каналов                     : Front: L C R, Side: L R, LFE
Частота                                  : 48,0 КГц
Битовая глубина                          : 16 бит
Метод сжатия                             : С потерями
Размер потока                            : 497 Мбайт (9%)
Заголовок                                : den904 & DeadSno
Язык                                     : Russian
Default                                  : Да
Forced                                   : Нет
Аудио #2
Идентификатор                            : 3
Формат                                   : AC-3
Формат/Информация                        : Audio Coding 3
Расширение режима                        : CM (complete main)
Параметр Endianness формата              : Big
Идентификатор кодека                     : A_AC3
Продолжительность                        : 1 ч. 48 м.
Вид битрейта                             : Постоянный
Битрейт                                  : 640 Кбит/сек
Каналы                                   : 6 каналов
Расположение каналов                     : Front: L C R, Side: L R, LFE
Частота                                  : 48,0 КГц
Битовая глубина                          : 16 бит
Метод сжатия                             : С потерями
Размер потока                            : 497 Мбайт (9%)
Язык                                     : English
Default                                  : Нет
Forced                                   : Нет
Текст #1
Идентификатор                            : 4
Формат                                   : UTF-8
Идентификатор кодека                     : S_TEXT/UTF8
Идентификатор кодека/Информация          : UTF-8 Plain Text
Заголовок                                : Janetta
Язык                                     : Russian
Default                                  : Нет
Forced                                   : Нет
Текст #2
Идентификатор                            : 5
Формат                                   : UTF-8
Идентификатор кодека                     : S_TEXT/UTF8
Идентификатор кодека/Информация          : UTF-8 Plain Text
Заголовок                                : SDH
Язык                                     : English
Default                                  : Нет
Forced                                   : Нет
Меню
00:00:00.000                             : :Chapter 01
00:05:23.906                             : :Chapter 02
00:09:49.589                             : :Chapter 03
00:16:19.561                             : :Chapter 04
00:19:49.188                             : :Chapter 05
00:25:32.239                             : :Chapter 06
00:30:45.718                             : :Chapter 07
00:35:16.405                             : :Chapter 08
00:41:58.724                             : :Chapter 09
00:45:59.840                             : :Chapter 10
00:49:18.372                             : :Chapter 11
00:55:32.829                             : :Chapter 12
00:59:39.993                             : :Chapter 13
01:07:38.387                             : :Chapter 14
01:12:25.674                             : :Chapter 15
01:16:09.398                             : :Chapter 16
01:24:45.580                             : :Chapter 17
01:29:11.137                             : :Chapter 18
01:36:35.080                             : :Chapter 19
01:42:46.952                             : :Chapter 20

Скриншоты

Дополнительно

Цитата:
Цитата:

Дорожка №1 получена наложением чистого голоса на центр декодированного DTS-HD MA.

The Bag Man 2014 720p BluRay DTS x264-CtrlHD

Код:
The.Bag.Man.2014.720p.BluRay.DTS.5.1.x264-CtrlHD
.GENERAL iNFORMATiON
RUNTiME.......: 01h:48m:39s
SiZE..........: 5.32 GB
ViDEO.CODEC...: x264, 2pass
FRAMERATE.....: 23.976fps
BiTRATE.......: 5500 Kbps
RESOLUTiON....: 1280x534
AUDiO.........: English DTS 5.1 @ 1510 Kbps
SUBTiTLES.....: English
SUBS.FORMAT...: UTF-8 embedded srt
CHAPTERS......: Marked like on Blu-ray
SOURCE........: The Bag Man 2014 1080p Blu-ray AVC DTS-HD MA 5.1-TTG
iMDB.RATiNG...: 5.2/10 from 3,222 users
iMDB.LiNK.....: http://www.imdb.com/title/tt2212008/
ENCODER.......: iNK@CtrlHD
.Notes
Using high bitrate to prevent blocks in dark scenes.
Special thanks to all the CtrlHD members.
Source vs Encode



_________________
Показать сообщения:    

Текущее время: Сегодня 18:30

Часовой пояс: GMT



Вы не можете начинать темы
Вы не можете отвечать на сообщения
Вы не можете редактировать свои сообщения
Вы не можете удалять свои сообщения
Вы не можете голосовать в опросах
Вы не можете прикреплять файлы к сообщениям
Вы не можете скачивать файлы