Важное объявление!
У Нас Все раздачи мультитрекерные, при нуле пиров в релизах, можете смело вставать на закачку!
 
Автор Сообщение

HUNTER

Стаж:
4 года 4 месяца
Сообщений:
56839

Репутация: 101

[+] [-]
Вне форума [Профиль] [ЛС]

Мосты у Токо-Ри / The Bridges at Toko-Ri
Страна: США
Жанр: драма, мелодрама, военный
Год выпуска: 1954
Продолжительность: 01:43:19
Перевод 1: Профессиональный (многоголосый закадровый) - Paramount Channel
Перевод 2: Одноголосый закадровый
Cубтитры: русские, английские
Оригинальная аудиодорожка: английский
Режиссер: Марк Робсон / Mark Robson
В ролях: Уильям Холден, Грэйс Келли, Фредрик Марч, Микки Руни, Роберт Штраусс, Чарльз МакГроу, Кэйко Авадзи, Эрл Холлиман, Ричард Шеннон, Уиллис Бучи
Описание: Действие фильма происходит во время Корейской войны. В центре повествования лейтенант ВМС США Гарри Брубейкер. Гарри — бывший юрист, пошедший на службу в армии. Дома его ждет красавица жена и двое маленьких дочек. Гарри уже устал от войны и думает, как вернуться домой. Но как военный человек он должен исполнять приказы и служить своей стране.
После неудачного приземления, Гарри получает увольнительную на неделю, как раз в то время когда его жена, с дочками преодолев запреты, приехала в Японию. Но, проведя неделю с семьей, Гарри надо возвращаться к службе, чтобы принять участие в опасном, но важном военном задании — разгромить стратегические мосты у Токо-Ри на территории Северной Кореи. Задание очень опасное, и Гарри понимает, что оно может стать последним в его жизни.
Доп. информация:


За многоголоску спасибо vedigo
За одноголоску спасибо -Iskander-
Сэмпл: http://sendfile.su/1052012
Тип релиза: WEB-DL 720p
Контейнер: MKV
Видео: AVC, 956x720, L3.1, 23.976fps, 3879kbps
Аудио 1: Russian: AC3, 48000Hz, 2ch, 192kbps - MVO
Аудио 2: Russian: AC3, 48000Hz, 2ch, 192kbps - VO
Аудио 3: English: AC3, 48000Hz, 2ch, 192kbps - DVD
Аудио 4: English: AAC, 48000Hz, 2ch, 103kbps - WEB-DL
Формат субтитров: softsub (SRT)

MediaInfo

Общее
Уникальный идентификатор : 230004298014350167307712190449759980836 (0xAD09376BC7FB4C5E8424226417AA8D24)
Полное имя : T:\The Bridges At Toko-Ri (WEB-DL 720p).mkv
Формат : Matroska
Версия формата : Version 4 / Version 2
Размер файла : 3,29 Гбайт
Продолжительность : 1 ч. 43 м.
Общий поток : 4557 Кбит/сек
Название фильма : The Bridges At Toko-Ri for rutracker.org
Дата кодирования : UTC 2014-11-23 05:27:11
Программа кодирования : mkvmerge v6.9.1 ('Blue Panther') 64bit built on Apr 18 2014 18:23:38
Библиотека кодирования : libebml v1.3.0 + libmatroska v1.4.1
Видео
Идентификатор : 1
Формат : AVC
Формат/Информация : Advanced Video Codec
Профиль формата : Main@L3.1
Параметр CABAC формата : Нет
Параметр ReFrames формата : 2 кадра
Идентификатор кодека : V_MPEG4/ISO/AVC
Продолжительность : 1 ч. 43 м.
Ширина : 956 пикселей
Высота : 720 пикселей
Соотношение сторон : 4:3
Режим частоты кадров : Постоянный
Частота кадров : 23,976 кадра/сек
Цветовое пространство : YUV
Субдискретизация насыщенности : 4:2:0
Битовая глубина : 8 бит
Тип развёртки : Прогрессивная
Язык : English
Default : Да
Forced : Нет
Основные цвета : BT.709
Характеристики трансфера : BT.709
Коэффициенты матрицы : BT.709
Аудио #1
Идентификатор : 2
Формат : AC-3
Формат/Информация : Audio Coding 3
Расширение режима : CM (complete main)
Параметр Endianness формата : Big
Идентификатор кодека : A_AC3
Продолжительность : 1 ч. 43 м.
Вид битрейта : Постоянный
Битрейт : 192 Кбит/сек
Каналы : 2 канала
Расположение каналов : Front: L R
Частота : 48,0 КГц
Битовая глубина : 16 бит
Метод сжатия : С потерями
Размер потока : 142 Мбайт (4%)
Заголовок : Paramound Channel
Язык : Russian
Default : Да
Forced : Нет
Аудио #2
Идентификатор : 3
Формат : AC-3
Формат/Информация : Audio Coding 3
Расширение режима : CM (complete main)
Параметр Endianness формата : Big
Идентификатор кодека : A_AC3
Продолжительность : 1 ч. 43 м.
Вид битрейта : Постоянный
Битрейт : 192 Кбит/сек
Каналы : 2 канала
Расположение каналов : Front: L R
Частота : 48,0 КГц
Битовая глубина : 16 бит
Метод сжатия : С потерями
Размер потока : 142 Мбайт (4%)
Заголовок : VO
Язык : Russian
Default : Нет
Forced : Нет
Аудио #3
Идентификатор : 4
Формат : AC-3
Формат/Информация : Audio Coding 3
Расширение режима : CM (complete main)
Параметр Endianness формата : Big
Идентификатор кодека : A_AC3
Продолжительность : 1 ч. 43 м.
Вид битрейта : Постоянный
Битрейт : 192 Кбит/сек
Каналы : 2 канала
Расположение каналов : Front: L R
Частота : 48,0 КГц
Битовая глубина : 16 бит
Метод сжатия : С потерями
Размер потока : 142 Мбайт (4%)
Заголовок : DVD
Язык : English
Default : Нет
Forced : Нет
Аудио #4
Идентификатор : 5
Формат : AAC
Формат/Информация : Advanced Audio Codec
Профиль формата : LC
Идентификатор кодека : A_AAC
Продолжительность : 1 ч. 43 м.
Каналы : 2 канала
Расположение каналов : Front: L R
Частота : 48,0 КГц
Метод сжатия : С потерями
Заголовок : WEB-DL
Язык : English
Default : Нет
Forced : Нет
Текст #1
Идентификатор : 6
Формат : UTF-8
Идентификатор кодека : S_TEXT/UTF8
Идентификатор кодека/Информация : UTF-8 Plain Text
Язык : Russian
Default : Нет
Forced : Нет
Текст #2
Идентификатор : 7
Формат : UTF-8
Идентификатор кодека : S_TEXT/UTF8
Идентификатор кодека/Информация : UTF-8 Plain Text
Язык : English
Default : Нет
Forced : Нет
Меню
00:00:00.000 : en:Korea, November 1952
00:06:35.000 : en:Down Pilot
00:15:39.000 : en:A Question Of Distance
00:20:16.000 : en:Berthing The Carrier
00:25:45.000 : en:Liberty
00:30:22.000 : en:Face Reality
00:35:51.000 : en:A Favor For Mike
00:41:17.000 : en:"Tell me about those bridges"
00:45:13.000 : en:Happy Family
00:53:55.000 : en:Photos
01:01:37.000 : en:Rough Landing
01:07:41.000 : en:Dear Nancy
01:15:24.000 : en:Attack Launched
01:21:45.000 : en:The Secondary Target
01:27:01.000 : en:Crash Landing
01:35:04.000 : en:Last Ditch

Скриншоты


_________________
Показать сообщения:    

Текущее время: Сегодня 07:55

Часовой пояс: GMT



Вы не можете начинать темы
Вы не можете отвечать на сообщения
Вы не можете редактировать свои сообщения
Вы не можете удалять свои сообщения
Вы не можете голосовать в опросах
Вы не можете прикреплять файлы к сообщениям
Вы не можете скачивать файлы