Важное объявление!
У Нас Все раздачи мультитрекерные, при нуле пиров в релизах, можете смело вставать на закачку!
 
Автор Сообщение

HUNTER

Стаж:
4 года 4 месяца
Сообщений:
56848

Репутация: 101

[+] [-]
Вне форума [Профиль] [ЛС]

Мосты у Токо-Ри / The Bridges at Toko-Ri-
Год выпуска: 1954
Страна: США
Жанр: драма, мелодрама, военный
Продолжительность: 01:43:29
Перевод 1: Профессиональный (многоголосый закадровый) Paramount Channel
Перевод 2: Одноголосый закадровый
Оригинальная аудиодорожка: Английская
Cубтитры: Русские, английские (полные, для слабослышащих)-Режиссер: Марк Робсон / Mark Robson
В ролях: Уильям Холден, Грэйс Келли, Фредрик Марч, Микки Руни, Роберт Штраусс, Чарльз МакГроу, Кэйко Авадзи, Эрл Холлиман, Ричард Шеннон, Уиллис Бучи-Описание:
Действие фильма происходит во время Корейской войны. В центре повествования лейтенант ВМС США Гарри Брубейкер. Гарри — бывший юрист, пошедший на службу в армии. Дома его ждет красавица жена и двое маленьких дочек. Гарри уже устал от войны и думает, как вернуться домой. Но как военный человек он должен исполнять приказы и служить своей стране.
После неудачного приземления, Гарри получает увольнительную на неделю, как раз в то время когда его жена, с дочками преодолев запреты, приехала в Японию. Но, проведя неделю с семьей, Гарри надо возвращаться к службе, чтобы принять участие в опасном, но важном военном задании — разгромить стратегические мосты у Токо-Ри на территории Северной Кореи. Задание очень опасное, и Гарри понимает, что оно может стать последним в его жизни.-За дорожки спасибо vedigo и -Iskander-.
| | Сэмпл-Качество: WEB-DL 1080p (SbR)
Контейнер: MKV
Видео: AVC (x264), 1920x1080 (1.33:1), 23.976 fps, 14259 kbps
Аудио 1: Русский AC3 2.0, 48 kHz, 192 kbps - Paramount Channel
Аудио 2: Русский AC3 2.0, 48 kHz, 192 kbps - VO
Аудио 3: Английский EAC3 2.0, 48 kHz, 224 kbps

Скриншоты


MI

General
Unique ID : 203714545040776077014185095850930254410 (0x9941FE8685568063AD239F23C1B0B24A)
Complete name : The.Bridges.at.Toko-Ri.1954.1080p.WEB-DL.DD2.0.H.264-SbR.mkv
Format : Matroska
Format version : Version 2
File size : 10.7 GiB
Duration : 1 h 43 min
Overall bit rate mode : Variable
Overall bit rate : 14.9 Mb/s
Movie name : The Bridges at Toko-Ri / Мосты у Токо-Ри (1954) – RuTracker
Encoded date : UTC 2016-09-16 19:39:26
Writing application : mkvmerge v9.4.0 ('Knurl') 64bit
Writing library : libebml v1.3.4 + libmatroska v1.4.5
Cover : Yes
Attachments : cover.jpg
Video
ID : 1
Format : AVC
Format/Info : Advanced Video Codec
Format profile : High@L4
Format settings, CABAC : Yes
Format settings, ReFrames : 4 frames
Codec ID : V_MPEG4/ISO/AVC
Duration : 1 h 43 min
Bit rate mode : Variable
Bit rate : 14.0 Mb/s
Maximum bit rate : 15.0 Mb/s
Width : 1 920 pixels
Height : 1 080 pixels
Display aspect ratio : 16:9
Frame rate mode : Constant
Frame rate : 23.976 (24000/1001) FPS
Color space : YUV
Chroma subsampling : 4:2:0
Bit depth : 8 bits
Scan type : Progressive
Bits/(Pixel*Frame) : 0.281
Stream size : 10.1 GiB (94%)
Title : The.Bridges.at.Toko-Ri.1954.1080p.WEB-DL.DD+2.0.H.264-SbR
Writing library : x264 core 148 r2623 d5b2374
Encoding settings : cabac=1 / ref=4 / deblock=1:-1:-1 / analyse=0x3:0x133 / me=umh / subme=9 / psy=1 / psy_rd=1.00:0.15 / mixed_ref=1 / me_range=24 / chroma_me=1 / trellis=2 / 8x8dct=1 / cqm=0 / deadzone=21,11 / fast_pskip=1 / chroma_qp_offset=-3 / threads=34 / lookahead_threads=5 / sliced_threads=0 / nr=150 / decimate=1 / interlaced=0 / bluray_compat=0 / constrained_intra=0 / bframes=8 / b_pyramid=2 / b_adapt=2 / b_bias=0 / direct=3 / weightb=1 / open_gop=0 / weightp=2 / keyint=120 / keyint_min=61 / scenecut=0 / intra_refresh=0 / rc_lookahead=120 / rc=crf / mbtree=1 / crf=18.0 / qcomp=0.60 / qpmin=0 / qpmax=69 / qpstep=4 / vbv_maxrate=15000 / vbv_bufsize=31250 / crf_max=0.0 / nal_hrd=vbr / filler=0 / ip_ratio=1.40 / aq=3:1.00
Language : English
Default : Yes
Forced : No
Color range : Limited
Color primaries : BT.709
Transfer characteristics : BT.709
Matrix coefficients : BT.709
Audio #1
ID : 2
Format : AC-3
Format/Info : Audio Coding 3
Mode extension : CM (complete main)
Format settings, Endianness : Big
Codec ID : A_AC3
Duration : 1 h 43 min
Bit rate mode : Constant
Bit rate : 192 kb/s
Channel(s) : 2 channels
Channel positions : Front: L R
Sampling rate : 48.0 kHz
Frame rate : 31.250 FPS (1536 spf)
Compression mode : Lossy
Stream size : 142 MiB (1%)
Title : MVO – Paramount Channel
Language : Russian
Default : Yes
Forced : No
Audio #2
ID : 3
Format : AC-3
Format/Info : Audio Coding 3
Mode extension : CM (complete main)
Format settings, Endianness : Big
Codec ID : A_AC3
Duration : 1 h 43 min
Bit rate mode : Constant
Bit rate : 192 kb/s
Channel(s) : 2 channels
Channel positions : Front: L R
Sampling rate : 48.0 kHz
Frame rate : 31.250 FPS (1536 spf)
Compression mode : Lossy
Stream size : 142 MiB (1%)
Title : AVO
Language : Russian
Default : No
Forced : No
Audio #3
ID : 4
Format : E-AC-3
Format/Info : Audio Coding 3
Format settings, Endianness : Big
Codec ID : A_EAC3
Duration : 1 h 43 min
Bit rate mode : Constant
Bit rate : 224 kb/s
Channel(s) : 2 channels
Channel positions : Front: L R
Sampling rate : 48.0 kHz
Frame rate : 187.500 FPS (256 spf)
Compression mode : Lossy
Stream size : 166 MiB (2%)
Title : Original
Language : English
Default : No
Forced : No
Text #1
ID : 5
Format : UTF-8
Codec ID : S_TEXT/UTF8
Codec ID/Info : UTF-8 Plain Text
Language : Russian
Default : No
Forced : No
Text #2
ID : 6
Format : UTF-8
Codec ID : S_TEXT/UTF8
Codec ID/Info : UTF-8 Plain Text
Language : English
Default : No
Forced : No
Text #3
ID : 7
Format : UTF-8
Codec ID : S_TEXT/UTF8
Codec ID/Info : UTF-8 Plain Text
Title : SDH
Language : English
Default : No
Forced : No
Menu
00:00:00.000 : en:Korea, November 1952
00:06:44.988 : en:Down Pilot
00:15:48.990 : en:A Question Of Distance
00:20:26.016 : en:Berthing The Carrier
00:25:54.970 : en:Liberty
00:30:31.913 : en:Face Reality
00:36:00.909 : en:A Favor For Mike
00:41:26.985 : en:"Tell me about those bridges"
00:45:23.054 : en:Happy Family
00:54:04.950 : en:Photos
01:01:46.953 : en:Rough Landing
01:07:50.984 : en:Dear Nancy
01:15:33.988 : en:Attack Launched
01:21:54.910 : en:The Secondary Target
01:27:10.892 : en:Crash Landing
01:35:13.958 : en:Last Ditch

_________________
Показать сообщения:    

Текущее время: Сегодня 02:05

Часовой пояс: GMT



Вы не можете начинать темы
Вы не можете отвечать на сообщения
Вы не можете редактировать свои сообщения
Вы не можете удалять свои сообщения
Вы не можете голосовать в опросах
Вы не можете прикреплять файлы к сообщениям
Вы не можете скачивать файлы
Наши партнеры: интернет магазин Ивановского трикотажа textilla.ru