Важное объявление!
У Нас Все раздачи мультитрекерные, при нуле пиров в релизах, можете смело вставать на закачку!
 
Автор Сообщение

HUNTER

Стаж:
4 года 4 месяца
Сообщений:
56842

Репутация: 101

[+] [-]
Вне форума [Профиль] [ЛС]

Мосты округа Мэдисон / The bridges of Madison county-
Страна: США
Год выпуска: 1995
Жанр: драма, мелодрама
Продолжительность: 02:14:36
Перевод 1: Профессиональный (многоголосый закадровый) R5 №1
Перевод 2: Профессиональный (многоголосый закадровый) R5 №2
Перевод 3: Профессиональный (многоголосый закадровый) 1 канал
Перевод 4: Профессиональный (многоголосый закадровый) ТК "Россия"
Перевод 5: Авторский (одноголосый закадровый) Карцев
Cубтитры: русские, английские-Режиссер: Клинт Иствуд / Clint Eastwood
В ролях: Мэрил Стрип, Клинт Иствуд, Анни Корли, Виктор Слезак, Джим Хейни-Описание: Франческа — жена американского фермера и мать двоих детей. Она родом из Южной Италии, где ее романтическим мечтам не суждено было сбыться. Неожиданно в ее монотонную жизнь вмешивается судьба: встреча с Робертом. Роберт — свободный фотограф, он давно уже привык жить один. Но эта встреча меняет и его судьбу. Они страстно и без оглядки влюбились друг в друга. На эту любовь, о которой они мечтали всю жизнь, им отпущено всего 4 дня.- -Качество: BDRip
Формат: MKV
Видео кодек: MPEG-4 AVC
Аудио кодек: AC3, DTS
Видео: 1280x720p (16:9), 23.976 fps, x264, 8500 Kbps
Аудио 1: Русский 48 kHz, AC3 5.1, 448 kbps | Многоголосый закадровый, R5 №1
Аудио 2: Русский 48 kHz, AC3 5.1, 384 kbps | Многоголосый закадровый, R5 №2
Аудио 3: Русский 48 kHz, AC3 2.0, 192 Kbps | Многоголосый закадровый, 1 канал
Аудио 4: Русский 48 kHz, AC3 2.0, 192 Kbps | Многоголосый закадровый, ТК "Россия"
Аудио 5: Русский 48 kHz, AC3 2.0, 192 Kbps | Одноголосый закадровый, Карцев
Аудио 6: English 48 kHz, DTS 5.1, 768 Kbps | Original
Формат субтитров: softsub (SRT)-Знаете ли вы, что...
  • Фильм снят по мотивам романа Роберта Джеймса Уоллера «Мосты округа Мэдисон» (The Bridges of Madison County, 1992).
  • Стать режиссером фильма также мог Брюс Бересфорд. Но он хотел сделать главную героиню англичанкой, и когда студия отказалась, ушел из проекта.
  • В 1993 году фильм собирался снимать Сидни Поллак. На главную роль он приглашал своего любимого актера Роберта Редфорда, а роль Франчески могли сыграть Анжелика Хьюстон, Сьюзен Сарандон, Джессика Лэнг или Барбара Херши.
  • Автор романа Роберт Джеймс Уоллер написал свою книгу за 11 дней и вначале не планировал ее издавать. Он просто давал читать ее своим друзьям, и один из них посоветовал Уоллеру найти литературного агента. Агент был найден в Нью-Йорке.
  • Кедровый мост, на котором встретились Франческа и Роберт, был уничтожен 3 сентября 2002-го.
  • Мэрил Стрип пришлось набрать лишний вес, чтобы выглядеть на экране обычной американской домохозяйкой.
    MediaInfo
    Код:
    General
    Unique ID                                : 188165613459480757350708780131662856059 (0x8D8F6102A44D8592B52B155F85767F7B)
    Complete name                            : The.bridges.of.Madison.county.1995.BDRip.720p.h264.AC3.DTS.Rus.Eng.mkv
    Format                                   : Matroska
    Format version                           : Version 4 / Version 2
    File size                                : 10.0 GiB
    Duration                                 : 2h 14mn
    Overall bit rate                         : 10.7 Mbps
    Encoded date                             : UTC 2014-06-27 14:32:04
    Writing application                      : mkvmerge v6.9.1 ('Blue Panther') 64bit built on Apr 18 2014 18:23:38
    Writing library                          : libebml v1.3.0 + libmatroska v1.4.1
    Video
    ID                                       : 1
    Format                                   : AVC
    Format/Info                              : Advanced Video Codec
    Format profile                           : High@L4.1
    Format settings, CABAC                   : Yes
    Format settings, ReFrames                : 9 frames
    Codec ID                                 : V_MPEG4/ISO/AVC
    Duration                                 : 2h 14mn
    Bit rate                                 : 8 500 Kbps
    Width                                    : 1 280 pixels
    Height                                   : 720 pixels
    Display aspect ratio                     : 16:9
    Frame rate mode                          : Constant
    Frame rate                               : 23.976 fps
    Color space                              : YUV
    Chroma subsampling                       : 4:2:0
    Bit depth                                : 8 bits
    Scan type                                : Progressive
    Bits/(Pixel*Frame)                       : 0.385
    Stream size                              : 7.79 GiB (78%)
    Writing library                          : x264 core 138 r2358 9e941d1
    Encoding settings                        : cabac=1 / ref=9 / deblock=1:-3:-3 / analyse=0x3:0x133 / me=umh / subme=11 / psy=1 / psy_rd=1.00:0.00 / mixed_ref=1 / me_range=48 / chroma_me=1 / trellis=2 / 8x8dct=1 / cqm=0 / deadzone=21,11 / fast_pskip=0 / chroma_qp_offset=-2 / threads=12 / lookahead_threads=2 / sliced_threads=0 / nr=0 / decimate=0 / interlaced=0 / bluray_compat=0 / constrained_intra=0 / bframes=9 / b_pyramid=2 / b_adapt=2 / b_bias=0 / direct=3 / weightb=1 / open_gop=0 / weightp=2 / keyint=240 / keyint_min=23 / scenecut=40 / intra_refresh=0 / rc_lookahead=240 / rc=2pass / mbtree=0 / bitrate=8500 / ratetol=1.0 / qcomp=0.60 / qpmin=10 / qpmax=51 / qpstep=4 / cplxblur=20.0 / qblur=0.5 / vbv_maxrate=50000 / vbv_bufsize=62500 / nal_hrd=none / ip_ratio=1.40 / pb_ratio=1.30 / aq=1:1.00
    Language                                 : English
    Default                                  : Yes
    Forced                                   : Yes
    Audio #1
    ID                                       : 2
    Format                                   : AC-3
    Format/Info                              : Audio Coding 3
    Mode extension                           : CM (complete main)
    Format settings, Endianness              : Big
    Codec ID                                 : A_AC3
    Duration                                 : 2h 14mn
    Bit rate mode                            : Constant
    Bit rate                                 : 448 Kbps
    Channel(s)                               : 6 channels
    Channel positions                        : Front: L C R, Side: L R, LFE
    Sampling rate                            : 48.0 KHz
    Bit depth                                : 16 bits
    Compression mode                         : Lossy
    Stream size                              : 431 MiB (4%)
    Title                                    : MVO, R5 (№1)
    Language                                 : Russian
    Default                                  : Yes
    Forced                                   : No
    Audio #2
    ID                                       : 3
    Format                                   : AC-3
    Format/Info                              : Audio Coding 3
    Mode extension                           : CM (complete main)
    Format settings, Endianness              : Big
    Codec ID                                 : A_AC3
    Duration                                 : 2h 14mn
    Bit rate mode                            : Constant
    Bit rate                                 : 384 Kbps
    Channel(s)                               : 6 channels
    Channel positions                        : Front: L C R, Side: L R, LFE
    Sampling rate                            : 48.0 KHz
    Bit depth                                : 16 bits
    Compression mode                         : Lossy
    Stream size                              : 370 MiB (4%)
    Title                                    : MVO, R5 (№2)
    Language                                 : Russian
    Default                                  : No
    Forced                                   : No
    Audio #3
    ID                                       : 4
    Format                                   : AC-3
    Format/Info                              : Audio Coding 3
    Mode extension                           : CM (complete main)
    Format settings, Endianness              : Big
    Codec ID                                 : A_AC3
    Duration                                 : 2h 14mn
    Bit rate mode                            : Constant
    Bit rate                                 : 192 Kbps
    Channel(s)                               : 2 channels
    Channel positions                        : Front: L R
    Sampling rate                            : 48.0 KHz
    Bit depth                                : 16 bits
    Compression mode                         : Lossy
    Stream size                              : 185 MiB (2%)
    Title                                    : MVO, 1 канал
    Language                                 : Russian
    Default                                  : No
    Forced                                   : No
    Audio #4
    ID                                       : 5
    Format                                   : AC-3
    Format/Info                              : Audio Coding 3
    Mode extension                           : CM (complete main)
    Format settings, Endianness              : Big
    Codec ID                                 : A_AC3
    Duration                                 : 2h 14mn
    Bit rate mode                            : Constant
    Bit rate                                 : 192 Kbps
    Channel(s)                               : 2 channels
    Channel positions                        : Front: L R
    Sampling rate                            : 48.0 KHz
    Bit depth                                : 16 bits
    Compression mode                         : Lossy
    Stream size                              : 185 MiB (2%)
    Title                                    : MVO, ТК "Россия"
    Language                                 : Russian
    Default                                  : No
    Forced                                   : No
    Audio #5
    ID                                       : 6
    Format                                   : AC-3
    Format/Info                              : Audio Coding 3
    Mode extension                           : CM (complete main)
    Format settings, Endianness              : Big
    Codec ID                                 : A_AC3
    Duration                                 : 2h 14mn
    Bit rate mode                            : Constant
    Bit rate                                 : 192 Kbps
    Channel(s)                               : 2 channels
    Channel positions                        : Front: L R
    Sampling rate                            : 48.0 KHz
    Bit depth                                : 16 bits
    Compression mode                         : Lossy
    Stream size                              : 185 MiB (2%)
    Title                                    : AVO, Карцев
    Language                                 : Russian
    Default                                  : No
    Forced                                   : No
    Audio #6
    ID                                       : 7
    Format                                   : DTS
    Format/Info                              : Digital Theater Systems
    Mode                                     : 16
    Format settings, Endianness              : Big
    Codec ID                                 : A_DTS
    Duration                                 : 2h 14mn
    Bit rate mode                            : Constant
    Bit rate                                 : 755 Kbps
    Channel(s)                               : 6 channels
    Channel positions                        : Front: L C R, Side: L R, LFE
    Sampling rate                            : 48.0 KHz
    Bit depth                                : 24 bits
    Compression mode                         : Lossy
    Stream size                              : 726 MiB (7%)
    Title                                    : Original
    Language                                 : English
    Default                                  : No
    Forced                                   : No
    Text #1
    ID                                       : 8
    Format                                   : UTF-8
    Codec ID                                 : S_TEXT/UTF8
    Codec ID/Info                            : UTF-8 Plain Text
    Language                                 : Russian
    Default                                  : No
    Forced                                   : No
    Text #2
    ID                                       : 9
    Format                                   : UTF-8
    Codec ID                                 : S_TEXT/UTF8
    Codec ID/Info                            : UTF-8 Plain Text
    Language                                 : English
    Default                                  : No
    Forced                                   : No
    Menu
    00:00:00.000                             : en:Chapter 01
    00:09:01.457                             : en:Chapter 02
    00:20:58.382                             : en:Chapter 03
    00:30:21.569                             : en:Chapter 04
    00:39:54.850                             : en:Chapter 05
    00:49:13.325                             : en:Chapter 06
    01:00:20.450                             : en:Chapter 07
    01:09:26.996                             : en:Chapter 08
    01:19:47.032                             : en:Chapter 09
    01:30:01.729                             : en:Chapter 10
    01:39:53.028                             : en:Chapter 11
    01:50:08.810                             : en:Chapter 12
    02:00:09.869                             : en:Chapter 13
    02:09:46.028                             : en:Chapter 14
    СкриншотыСравнение с исходником
    Blu-Ray
    BDRip

  • _________________
    Показать сообщения:    

    Текущее время: Сегодня 19:23

    Часовой пояс: GMT



    Вы не можете начинать темы
    Вы не можете отвечать на сообщения
    Вы не можете редактировать свои сообщения
    Вы не можете удалять свои сообщения
    Вы не можете голосовать в опросах
    Вы не можете прикреплять файлы к сообщениям
    Вы не можете скачивать файлы
    Наши партнеры: интернет магазин Ивановского трикотажа textilla.ru