Важное объявление!
У Нас Все раздачи мультитрекерные, при нуле пиров в релизах, можете смело вставать на закачку!
 
Автор Сообщение

HUNTER

Стаж:
4 года 4 месяца
Сообщений:
56839

Репутация: 101

[+] [-]
Вне форума [Профиль] [ЛС]

Морской пехотинец 4 / The Marine 4: Moving Target
Страна: США
Студия: WWE Studios
Жанр: Боевик, триллер
Год выпуска: 2015
Продолжительность: 01:30:14
Перевод: Профессиональный (многоголосый закадровый) iTunes
Cубтитры: английские
Оригинальная аудиодорожка: английский
Режиссер: Уильям Кауфман / William Kaufman
В ролях: Мелисса Роксбур, Майк Мизанин, Мэттью МакКоулл, Пол МакДжиллион, Даниэль Муане, Кертис Караваджо, Фрейзер Айтчесон, Джош Блэкер, Примо Аллон, Тодд Дженкинс
Описание: В рамках частной практики Картер берется за новое задание: защиту "особо ценного груза" - прекрасной осведомительницы, пытающейся разоблачить коррумпированного поставщика оборонного комплекса. Вооруженные до зубов наемники идут по ее следам, готовые уничтожить каждого, кто встанет у них на пути - но безжалостный боец-профи не боится бросить им вызов.

Тип релиза: BDRip 720p
Контейнер: MKV
Видео: MPEG-4 AVC, 7500 Кбит/с, 1280x720, 23,976 fps
Аудио: Rus, AC3, 384 kb/s (6 ch), 48 kHz
Аудио 2: Eng, DTS, 1510 kb/s (6 ch), 48 kHz
Формат субтитров: softsub (SRT)

MediaInfo

Format : Matroska
Format version : Version 4 / Version 2
File size : 5.92 GiB
Duration : 1h 30mn
Overall bit rate : 9 396 Kbps
Movie name : Морской пехотинец 4. (Tonik)
Encoded date : UTC 2015-04-21 13:56:32
Writing application : mkvmerge v7.1.0 ('Good Love') 64bit built on Jul 27 2014 13:06:55
Writing library : libebml v1.3.0 + libmatroska v1.4.1
Cover : Yes
DURATION : 01:26:45.283000000
NUMBER_OF_FRAMES : 767
NUMBER_OF_BYTES : 28426
_STATISTICS_WRITING_APP : mkvmerge v7.1.0 ('Good Love') 64bit built on Jul 27 2014 13:06:55
_STATISTICS_WRITING_DATE_UTC : 2015-04-21 13:56:32
_STATISTICS_TAGS : BPS DURATION NUMBER_OF_FRAMES NUMBER_OF_BYTES
Video
ID : 1
Format : AVC
Format/Info : Advanced Video Codec
Format profile : High@L4.1
Format settings, CABAC : Yes
Format settings, ReFrames : 9 frames
Codec ID : V_MPEG4/ISO/AVC
Duration : 1h 30mn
Bit rate : 7 500 Kbps
Width : 1 280 pixels
Height : 720 pixels
Display aspect ratio : 16:9
Frame rate mode : Constant
Frame rate : 23.976 fps
Color space : YUV
Chroma subsampling : 4:2:0
Bit depth : 8 bits
Scan type : Progressive
Bits/(Pixel*Frame) : 0.339
Stream size : 4.61 GiB (78%)
Writing library : x264 core 142 r2479 dd79a61
Encoding settings : cabac=1 / ref=9 / deblock=1:-3:-3 / analyse=0x3:0x133 / me=umh / subme=11 / psy=1 / psy_rd=1.00:0.10 / mixed_ref=1 / me_range=32 / chroma_me=1 / trellis=2 / 8x8dct=1 / cqm=0 / deadzone=21,11 / fast_pskip=0 / chroma_qp_offset=-3 / threads=12 / lookahead_threads=2 / sliced_threads=0 / nr=0 / decimate=0 / interlaced=0 / bluray_compat=0 / constrained_intra=0 / bframes=8 / b_pyramid=2 / b_adapt=2 / b_bias=0 / direct=3 / weightb=1 / open_gop=0 / weightp=2 / keyint=250 / keyint_min=23 / scenecut=40 / intra_refresh=0 / rc_lookahead=80 / rc=2pass / mbtree=1 / bitrate=7500 / ratetol=1.0 / qcomp=0.75 / qpmin=0 / qpmax=69 / qpstep=4 / cplxblur=20.0 / qblur=0.5 / ip_ratio=1.40 / aq=1:0.80
Language : English
Default : Yes
Forced : No
DURATION : 01:30:14.409000000
NUMBER_OF_FRAMES : 129816
NUMBER_OF_BYTES : 5075326912
_STATISTICS_WRITING_APP : mkvmerge v7.1.0 ('Good Love') 64bit built on Jul 27 2014 13:06:55
_STATISTICS_WRITING_DATE_UTC : 2015-04-21 13:56:32
_STATISTICS_TAGS : BPS DURATION NUMBER_OF_FRAMES NUMBER_OF_BYTES
Audio #1
ID : 2
Format : AC-3
Format/Info : Audio Coding 3
Mode extension : CM (complete main)
Format settings, Endianness : Big
Codec ID : A_AC3
Duration : 1h 30mn
Bit rate mode : Constant
Bit rate : 384 Kbps
Channel(s) : 6 channels
Channel positions : Front: L C R, Side: L R, LFE
Sampling rate : 48.0 KHz
Bit depth : 16 bits
Compression mode : Lossy
Stream size : 248 MiB (4%)
Language : Russian
Default : Yes
Forced : No
Audio #2
ID : 3
Format : DTS
Format/Info : Digital Theater Systems
Mode : 16
Format settings, Endianness : Big
Codec ID : A_DTS
Duration : 1h 30mn
Bit rate mode : Constant
Bit rate : 1 509 Kbps
Channel(s) : 6 channels
Channel positions : Front: L C R, Side: L R, LFE
Sampling rate : 48.0 KHz
Bit depth : 24 bits
Compression mode : Lossy
Stream size : 974 MiB (16%)
Language : English
Default : No
Forced : No
Text
ID : 4
Format : UTF-8
Codec ID : S_TEXT/UTF8
Codec ID/Info : UTF-8 Plain Text
Language : English
Default : No
Forced : No
Menu
00:00:00.000 : en:00:00:00.000
00:03:47.686 : en:00:03:47.686
00:04:58.715 : en:00:04:58.715
00:06:52.579 : en:00:06:52.579
00:08:44.190 : en:00:08:44.190
00:11:18.803 : en:00:11:18.803
00:13:23.177 : en:00:13:23.177
00:17:29.006 : en:00:17:29.006
00:21:05.681 : en:00:21:05.681
00:24:33.347 : en:00:24:33.347
00:28:10.898 : en:00:28:10.898
00:33:49.194 : en:00:33:49.194
00:36:52.293 : en:00:36:52.293
00:39:56.394 : en:00:39:56.394
00:42:34.552 : en:00:42:34.552
00:47:35.853 : en:00:47:35.853
00:49:37.933 : en:00:49:37.933
00:55:11.225 : en:00:55:11.225
01:00:06.812 : en:01:00:06.812
01:04:37.373 : en:01:04:37.373
01:07:33.549 : en:01:07:33.549
01:11:34.665 : en:01:11:34.665
01:14:19.538 : en:01:14:19.538
01:15:35.030 : en:01:15:35.030
01:17:04.829 : en:01:17:04.829
01:18:40.841 : en:01:18:40.841
01:20:43.464 : en:01:20:43.464
01:24:12.256 : en:01:24:12.256

Скриншоты


_________________
Показать сообщения:    

Текущее время: Сегодня 23:49

Часовой пояс: GMT



Вы не можете начинать темы
Вы не можете отвечать на сообщения
Вы не можете редактировать свои сообщения
Вы не можете удалять свои сообщения
Вы не можете голосовать в опросах
Вы не можете прикреплять файлы к сообщениям
Вы не можете скачивать файлы