Важное объявление!
У Нас Все раздачи мультитрекерные, при нуле пиров в релизах, можете смело вставать на закачку!
 
Автор Сообщение

HUNTER

Стаж:
4 года 4 месяца
Сообщений:
56842

Репутация: 101

[+] [-]
Вне форума [Профиль] [ЛС]

Морские котики / Navy Seals
Страна: США
Студия: Orion Pictures Corporation
Жанр: боевик, триллер, приключения
Год выпуска: 1990
Продолжительность: 01:53:28
Перевод : Профессиональный (Двухголосый закадровый) (НТВ+)
Перевод : Профессиональный (Двухголосый закадровый) (SDI Media)
Перевод : Профессиональный (Двухголосый закадровый) (Лазер Видео)
Перевод : Авторский (Одноголосый закадровый) (А.Гаврилов)
Cубтитры: английские, испанские, корейские
Оригинальная аудиодорожка: английский
Режиссер: Льюис Тиг / Lewis Teague
В ролях: Чарли Шин, Майкл Бьен, Джоэнн Уэлли, Рик Россович, Сирил О’Райлли, Билл Пэкстон, Деннис Хейсбёрт, Пол Санчез, Николас Кади, Рональд Дж. Джозеф
Описание: Выполняя тайную операцию на Ближнем Востоке, спецназ «Морские котики» обнаруживает, что в руки одного из самых опасных террористов попали боевые ракеты. «Морские котики» — элитное секретное подразделение американских ВМС, отличающееся невероятной спаянностью и выучкой. Отряд возглавляет лейтенант Курран, дисциплинированный, хладнокровный и уравновешенный офицер.
Его заместитель и друг младший лейтенант Хоукинс любит очертя голову бросаться навстречу любой опасности. Перед отрядом поставлена задача: уничтожить ракеты, прежде чем террористы успеют пустить их в ход. база террористов, на которой спрятаны ракеты, находится в подвале полуразрушенной школы в Бейруте.
В ночной тьме вертолет с «Морскими котиками» на борту взмывает в воздух. Задание почти невыполнимо, но к рассвету все должно быть кончено…
Доп. информация: Видео, основа для меню, чаптеры, английская дорожка, субтитры взяты с Blu-ray скаченного в сети.
Переводы с этого BD-Remux. Спасибо kingsize87.
Видео сжато Rhozet Carbon Coder в VBR в два прохода по инструкции Mikky72
Диск собран в DvdReMakePro. Главы расставил как на Blu-ray.
По многоголоске НТВ+ кто-то прошёлся подводной лодкой. В релиз не включена.
Отдельное спасибо AlsKnight за вовремя оказанную помощь и ZVNV который стойко выдержал пытку глупыми вопросамиРелиз-группы: только для
-
Бонусы: Нет
Меню: есть, анимированое, озвученое, английское.
Сэмпл: http://www.sendspace.com/file/brv6fs

Тип релиза: DVD9 (Custom)
Контейнер: DVD-Video
Видео: NTSC 16:9 (720x480) VBR Auto Letterboxed
Аудио 1: Russian AC3, 2.0 / 48 kHz / 192 kbps |Двухголосый| НТВ+
Аудио 2: Russian AC3, 2.0 / 48 kHz / 192 kbps |Двухголосый| SDI Media
Аудио 3: Russian AC3, 2.0 / 48 kHz / 192 kbps |Двухголосый| Лазер Видео
Аудио 4: Russian AC3, 5.1 / 48 kHz / 384 kbps |Авторский| А.Гаврилов
Аудио 5: English AC3, 5.1 / 48 kHz / 448 kbps |Оригинал|
Субтитры : Английские, Испанские, Корейские

BDInfo

Disc Title: NAVY_SEALS
Disc Size: 19 733 998 659 bytes
Protection: AACS
BD-Java: No
BDInfo: 0.5.8
Notes:
BDINFO HOME:
Cinema Squid
http://www.cinemasquid.com/blu-ray/tools/bdinfo
INCLUDES FORUMS REPORT FOR:
AVS Forum Blu-ray Audio and Video Specifications Thread
http://www.avsforum.com/avs-vb/showthread.php?t=1155731
********************
PLAYLIST: 00019.MPLS
********************
<--- BEGIN FORUMS PASTE --->
Код:
Total   Video
Title                                                           Codec   Length  Movie Size      Disc Size       Bitrate Bitrate Main Audio Track                          Secondary Audio Track
-----                                                           ------  ------- --------------  --------------  ------- ------- ------------------                        ---------------------
00019.MPLS                                                      MPEG-2  1:53:35 18 065 842 176  19 733 998 659  21,21   17,82   DTS 5.1 1509Kbps (48kHz/24-bit)
Код:
DISC INFO:
Disc Title:     NAVY_SEALS
Disc Size:      19 733 998 659 bytes
Protection:     AACS
BD-Java:        No
BDInfo:         0.5.8
PLAYLIST REPORT:
Name:                   00019.MPLS
Length:                 1:53:35.433 (h:m:s.ms)
Size:                   18 065 842 176 bytes
Total Bitrate:          21,21 Mbps
VIDEO:
Codec                   Bitrate             Description
-----                   -------             -----------
MPEG-2 Video            17819 kbps          1080p / 23,976 fps / 16:9
AUDIO:
Codec                           Language        Bitrate         Description
-----                           --------        -------         -----------
DTS Audio                       English         1509 kbps       5.1 / 48 kHz / 1509 kbps / 24-bit
Dolby Digital Audio             English         224 kbps        2.0 / 48 kHz / 224 kbps / DN -4dB
Dolby Digital Audio             French          224 kbps        2.0 / 48 kHz / 224 kbps / DN -4dB
Dolby Digital Audio             Spanish         224 kbps        2.0 / 48 kHz / 224 kbps / DN -4dB
SUBTITLES:
Codec                           Language        Bitrate         Description
-----                           --------        -------         -----------
Presentation Graphics           English         29,692 kbps
Presentation Graphics           Spanish         27,691 kbps
Presentation Graphics           Korean          19,466 kbps
Presentation Graphics           French          0,661 kbps
Presentation Graphics           Spanish         0,040 kbps
FILES:
Name            Time In         Length          Size            Total Bitrate
----            -------         ------          ----            -------------
00025.M2TS      0:00:00.000     1:53:35.433     18 065 842 176  21 206
CHAPTERS:
Number          Time In         Length          Avg Video Rate  Max 1-Sec Rate  Max 1-Sec Time  Max 5-Sec Rate  Max 5-Sec Time  Max 10Sec Rate  Max 10Sec Time  Avg Frame Size  Max Frame Size  Max Frame Time
------          -------         ------          --------------  --------------  --------------  --------------  --------------  --------------  --------------  --------------  --------------  --------------
1               0:00:00.000     0:03:59.864     18 068 kbps     42 643 kbps     00:03:29.584    38 337 kbps     00:02:47.041    36 794 kbps     00:01:51.402    94 182 bytes    709 417 bytes   00:03:32.378
2               0:03:59.864     0:04:52.458     17 816 kbps     39 902 kbps     00:04:14.754    38 349 kbps     00:04:10.750    38 097 kbps     00:04:05.745    92 883 bytes    582 439 bytes   00:08:52.323
3               0:08:52.323     0:06:58.459     17 533 kbps     41 431 kbps     00:10:29.211    38 706 kbps     00:14:18.607    32 661 kbps     00:14:16.063    91 410 bytes    647 588 bytes   00:15:46.236
4               0:15:50.783     0:04:32.605     17 899 kbps     42 035 kbps     00:20:20.594    38 250 kbps     00:18:50.128    38 025 kbps     00:18:50.170    93 319 bytes    698 564 bytes   00:19:06.687
5               0:20:23.388     0:05:53.853     16 781 kbps     40 291 kbps     00:22:16.626    26 265 kbps     00:22:13.123    21 609 kbps     00:22:08.118    87 478 bytes    644 820 bytes   00:22:17.544
6               0:26:17.242     0:04:44.367     20 544 kbps     43 013 kbps     00:26:49.149    38 689 kbps     00:27:22.849    38 304 kbps     00:27:23.433    107 121 bytes   765 539 bytes   00:27:39.115
7               0:31:01.609     0:08:59.664     17 166 kbps     28 456 kbps     00:33:33.052    22 602 kbps     00:33:56.534    20 986 kbps     00:33:52.947    89 489 bytes    641 814 bytes   00:32:12.513
8               0:40:01.273     0:06:13.998     18 300 kbps     43 633 kbps     00:42:57.366    36 323 kbps     00:42:56.573    27 099 kbps     00:42:56.573    95 408 bytes    704 276 bytes   00:42:21.080
9               0:46:15.272     0:10:37.803     17 603 kbps     25 025 kbps     00:47:45.737    20 421 kbps     00:46:16.273    19 895 kbps     00:46:25.157    91 772 bytes    600 578 bytes   00:52:00.534
10              0:56:53.076     0:06:38.940     18 151 kbps     43 071 kbps     01:00:00.263    30 506 kbps     00:59:59.512    24 531 kbps     01:00:00.263    94 631 bytes    644 568 bytes   01:00:02.932
11              1:03:32.016     0:05:46.345     17 671 kbps     40 684 kbps     01:04:09.136    25 126 kbps     01:07:03.936    22 497 kbps     01:06:58.931    92 131 bytes    611 425 bytes   01:04:09.178
12              1:09:18.362     0:11:19.679     17 864 kbps     39 571 kbps     01:13:38.163    24 526 kbps     01:13:34.201    22 652 kbps     01:13:29.196    93 133 bytes    609 029 bytes   01:11:21.360
13              1:20:38.041     0:09:34.699     19 158 kbps     43 201 kbps     01:22:58.390    38 516 kbps     01:27:38.169    38 167 kbps     01:21:55.619    99 882 bytes    775 072 bytes   01:27:53.893
14              1:30:12.740     0:08:20.541     16 315 kbps     42 385 kbps     01:36:02.840    38 647 kbps     01:35:59.503    37 144 kbps     01:35:59.086    85 061 bytes    772 229 bytes   01:36:09.013
15              1:38:33.282     0:09:52.842     20 417 kbps     43 515 kbps     01:42:05.744    38 833 kbps     01:46:17.245    38 361 kbps     01:45:29.948    106 444 bytes   738 615 bytes   01:41:37.633
16              1:48:26.124     0:05:09.308     12 230 kbps     17 132 kbps     01:52:13.935    16 386 kbps     01:52:13.935    16 167 kbps     01:52:12.475    63 777 bytes    482 406 bytes   01:53:35.350
STREAM DIAGNOSTICS:
File            PID             Type            Codec           Language                Seconds                 Bitrate                 Bytes           Packets
----            ---             ----            -----           --------                --------------          --------------          -------------   -----
00025.M2TS      4113 (0x1011)   0x02            MPEG-2                                  6815,308                17 819                  15 180 291 937  82 596 493
00025.M2TS      4352 (0x1100)   0x82            DTS             eng (English)           6815,308                1 509                   1 285 561 432   7 667 364
00025.M2TS      4353 (0x1101)   0x81            AC3             eng (English)           6815,308                224                     190 832 768     1 064 915
00025.M2TS      4354 (0x1102)   0x81            AC3             fra (French)            6815,308                224                     190 832 768     1 064 915
00025.M2TS      4355 (0x1103)   0x81            AC3             spa (Spanish)           6815,308                224                     190 832 768     1 064 915
00025.M2TS      4608 (0x1200)   0x90            PGS             eng (English)           6815,308                30                      25 295 555      145 391
00025.M2TS      4609 (0x1201)   0x90            PGS             spa (Spanish)           6815,308                28                      23 590 966      135 504
00025.M2TS      4610 (0x1202)   0x90            PGS             kor (Korean)            6815,308                19                      16 583 457      97 459
00025.M2TS      4611 (0x1203)   0x90            PGS             fra (French)            6815,308                1                       562 700         3 228
00025.M2TS      4612 (0x1204)   0x90            PGS             spa (Spanish)           6815,308                0                       33 763          197
<---- END FORUMS PASTE ---->
QUICK SUMMARY:
Disc Title: NAVY_SEALS
Disc Size: 19 733 998 659 bytes
Protection: AACS
BD-Java: No
Playlist: 00019.MPLS
Size: 18 065 842 176 bytes
Length: 1:53:35.433
Total Bitrate: 21,21 Mbps
Video: MPEG-2 Video / 17819 kbps / 1080p / 23,976 fps / 16:9
Audio: English / DTS Audio / 5.1 / 48 kHz / 1509 kbps / 24-bit
Audio: English / Dolby Digital Audio / 2.0 / 48 kHz / 224 kbps / DN -4dB
Audio: French / Dolby Digital Audio / 2.0 / 48 kHz / 224 kbps / DN -4dB
Audio: Spanish / Dolby Digital Audio / 2.0 / 48 kHz / 224 kbps / DN -4dB
Subtitle: English / 29,692 kbps
Subtitle: Spanish / 27,691 kbps
Subtitle: Korean / 19,466 kbps
Subtitle: French / 0,661 kbps
Subtitle: Spanish / 0,040 kbps
********************
PLAYLIST: 00021.MPLS
********************
<--- BEGIN FORUMS PASTE --->
Код:
Total   Video
Title                                                           Codec   Length  Movie Size      Disc Size       Bitrate Bitrate Main Audio Track                          Secondary Audio Track
-----                                                           ------  ------- --------------  --------------  ------- ------- ------------------                        ---------------------
00021.MPLS                                                      MPEG-2  0:06:27 801 159 168     19 733 998 659  16,53   15,45   DD AC3 5.1 448Kbps
Код:
DISC INFO:
Disc Title:     NAVY_SEALS
Disc Size:      19 733 998 659 bytes
Protection:     AACS
BD-Java:        No
BDInfo:         0.5.8
PLAYLIST REPORT:
Name:                   00021.MPLS
Length:                 0:06:27.845 (h:m:s.ms)
Size:                   801 159 168 bytes
Total Bitrate:          16,53 Mbps
VIDEO:
Codec                   Bitrate             Description
-----                   -------             -----------
MPEG-2 Video            15448 kbps          1080p / 23,976 fps / 16:9
AUDIO:
Codec                           Language        Bitrate         Description
-----                           --------        -------         -----------
Dolby Digital Audio             English         448 kbps        5.1 / 48 kHz / 448 kbps / DN -4dB
FILES:
Name            Time In         Length          Size            Total Bitrate
----            -------         ------          ----            -------------
00017.M2TS      0:00:00.000     0:01:57.742     274 268 160     18 635
00018.M2TS      0:01:57.742     0:02:20.557     273 174 528     15 548
00020.M2TS      0:04:18.299     0:02:09.546     253 716 480     15 668
CHAPTERS:
Number          Time In         Length          Avg Video Rate  Max 1-Sec Rate  Max 1-Sec Time  Max 5-Sec Rate  Max 5-Sec Time  Max 10Sec Rate  Max 10Sec Time  Avg Frame Size  Max Frame Size  Max Frame Time
------          -------         ------          --------------  --------------  --------------  --------------  --------------  --------------  --------------  --------------  --------------  --------------
1               0:00:00.000     0:01:57.742     17 556 kbps     43 492 kbps     00:00:42.417    31 479 kbps     00:01:40.391    25 524 kbps     00:01:38.598    91 499 bytes    703 063 bytes   00:01:41.267
2               0:01:57.742     0:02:20.557     14 372 kbps     25 550 kbps     00:03:30.710    19 095 kbps     00:03:55.735    18 023 kbps     00:03:30.251    74 929 bytes    408 721 bytes   00:02:56.467
3               0:04:18.299     0:02:09.546     14 699 kbps     24 035 kbps     00:06:07.742    18 876 kbps     00:06:07.533    17 974 kbps     00:05:41.340    76 660 bytes    308 044 bytes   00:06:25.968
STREAM DIAGNOSTICS:
File            PID             Type            Codec           Language                Seconds                 Bitrate                 Bytes           Packets
----            ---             ----            -----           --------                --------------          --------------          -------------   -----
00017.M2TS      4113 (0x1011)   0x02            MPEG-2                                  117,618                 17 572                  258 349 448     1 405 698
00017.M2TS      4352 (0x1100)   0x81            AC3             eng (English)           117,618                 224                     3 297 280       18 400
00018.M2TS      4113 (0x1011)   0x02            MPEG-2                                  140,390                 14 382                  252 383 455     1 373 622
00018.M2TS      4352 (0x1100)   0x81            AC3             eng (English)           140,390                 449                     7 872 256       43 930
00020.M2TS      4113 (0x1011)   0x02            MPEG-2                                  129,379                 14 729                  238 197 981     1 296 368
00020.M2TS      4352 (0x1100)   0x81            AC3             eng (English)           129,379                 224                     3 627 904       20 245
<---- END FORUMS PASTE ---->
QUICK SUMMARY:
Disc Title: NAVY_SEALS
Disc Size: 19 733 998 659 bytes
Protection: AACS
BD-Java: No
Playlist: 00021.MPLS
Size: 801 159 168 bytes
Length: 0:06:27.845
Total Bitrate: 16,53 Mbps
Video: MPEG-2 Video / 15448 kbps / 1080p / 23,976 fps / 16:9
Audio: English / Dolby Digital Audio / 5.1 / 48 kHz / 448 kbps / DN -4dB
********************
PLAYLIST: 00013.MPLS
********************
<--- BEGIN FORUMS PASTE --->
Код:
Total   Video
Title                                                           Codec   Length  Movie Size      Disc Size       Bitrate Bitrate Main Audio Track                          Secondary Audio Track
-----                                                           ------  ------- --------------  --------------  ------- ------- ------------------                        ---------------------
00013.MPLS                                                      MPEG-2  0:02:20 273 174 528     19 733 998 659  15,55   14,36   DD AC3 5.1 448Kbps
Код:
DISC INFO:
Disc Title:     NAVY_SEALS
Disc Size:      19 733 998 659 bytes
Protection:     AACS
BD-Java:        No
BDInfo:         0.5.8
PLAYLIST REPORT:
Name:                   00013.MPLS
Length:                 0:02:20.557 (h:m:s.ms)
Size:                   273 174 528 bytes
Total Bitrate:          15,55 Mbps
VIDEO:
Codec                   Bitrate             Description
-----                   -------             -----------
MPEG-2 Video            14365 kbps          1080p / 23,976 fps / 16:9
AUDIO:
Codec                           Language        Bitrate         Description
-----                           --------        -------         -----------
Dolby Digital Audio             English         448 kbps        5.1 / 48 kHz / 448 kbps / DN -4dB
FILES:
Name            Time In         Length          Size            Total Bitrate
----            -------         ------          ----            -------------
00018.M2TS      0:00:00.000     0:02:20.557     273 174 528     15 548
CHAPTERS:
Number          Time In         Length          Avg Video Rate  Max 1-Sec Rate  Max 1-Sec Time  Max 5-Sec Rate  Max 5-Sec Time  Max 10Sec Rate  Max 10Sec Time  Avg Frame Size  Max Frame Size  Max Frame Time
------          -------         ------          --------------  --------------  --------------  --------------  --------------  --------------  --------------  --------------  --------------  --------------
1               0:00:00.000     0:02:20.557     14 365 kbps     25 550 kbps     00:01:32.967    19 095 kbps     00:01:57.992    18 023 kbps     00:01:32.509    74 891 bytes    408 721 bytes   00:00:58.725
STREAM DIAGNOSTICS:
File            PID             Type            Codec           Language                Seconds                 Bitrate                 Bytes           Packets
----            ---             ----            -----           --------                --------------          --------------          -------------   -----
00018.M2TS      4113 (0x1011)   0x02            MPEG-2                                  140,390                 14 382                  252 383 455     1 373 622
00018.M2TS      4352 (0x1100)   0x81            AC3             eng (English)           140,390                 449                     7 872 256       43 930
<---- END FORUMS PASTE ---->
QUICK SUMMARY:
Disc Title: NAVY_SEALS
Disc Size: 19 733 998 659 bytes
Protection: AACS
BD-Java: No
Playlist: 00013.MPLS
Size: 273 174 528 bytes
Length: 0:02:20.557
Total Bitrate: 15,55 Mbps
Video: MPEG-2 Video / 14365 kbps / 1080p / 23,976 fps / 16:9
Audio: English / Dolby Digital Audio / 5.1 / 48 kHz / 448 kbps / DN -4dB
********************
PLAYLIST: 00015.MPLS
********************
<--- BEGIN FORUMS PASTE --->
Код:
Total   Video
Title                                                           Codec   Length  Movie Size      Disc Size       Bitrate Bitrate Main Audio Track                          Secondary Audio Track
-----                                                           ------  ------- --------------  --------------  ------- ------- ------------------                        ---------------------
00015.MPLS                                                      MPEG-2  0:02:09 253 716 480     19 733 998 659  15,67   14,71   DD AC3 2.0 224Kbps
Код:
DISC INFO:
Disc Title:     NAVY_SEALS
Disc Size:      19 733 998 659 bytes
Protection:     AACS
BD-Java:        No
BDInfo:         0.5.8
PLAYLIST REPORT:
Name:                   00015.MPLS
Length:                 0:02:09.546 (h:m:s.ms)
Size:                   253 716 480 bytes
Total Bitrate:          15,67 Mbps
VIDEO:
Codec                   Bitrate             Description
-----                   -------             -----------
MPEG-2 Video            14710 kbps          1080p / 23,976 fps / 16:9
AUDIO:
Codec                           Language        Bitrate         Description
-----                           --------        -------         -----------
Dolby Digital Audio             English         224 kbps        2.0 / 48 kHz / 224 kbps / DN -4dB
FILES:
Name            Time In         Length          Size            Total Bitrate
----            -------         ------          ----            -------------
00020.M2TS      0:00:00.000     0:02:09.546     253 716 480     15 668
CHAPTERS:
Number          Time In         Length          Avg Video Rate  Max 1-Sec Rate  Max 1-Sec Time  Max 5-Sec Rate  Max 5-Sec Time  Max 10Sec Rate  Max 10Sec Time  Avg Frame Size  Max Frame Size  Max Frame Time
------          -------         ------          --------------  --------------  --------------  --------------  --------------  --------------  --------------  --------------  --------------  --------------
1               0:00:00.000     0:02:09.546     14 710 kbps     24 035 kbps     00:01:49.442    18 876 kbps     00:01:49.234    17 974 kbps     00:01:23.041    76 690 bytes    308 044 bytes   00:02:07.669
STREAM DIAGNOSTICS:
File            PID             Type            Codec           Language                Seconds                 Bitrate                 Bytes           Packets
----            ---             ----            -----           --------                --------------          --------------          -------------   -----
00020.M2TS      4113 (0x1011)   0x02            MPEG-2                                  129,379                 14 729                  238 197 981     1 296 368
00020.M2TS      4352 (0x1100)   0x81            AC3             eng (English)           129,379                 224                     3 627 904       20 245
<---- END FORUMS PASTE ---->
QUICK SUMMARY:
Disc Title: NAVY_SEALS
Disc Size: 19 733 998 659 bytes
Protection: AACS
BD-Java: No
Playlist: 00015.MPLS
Size: 253 716 480 bytes
Length: 0:02:09.546
Total Bitrate: 15,67 Mbps
Video: MPEG-2 Video / 14710 kbps / 1080p / 23,976 fps / 16:9
Audio: English / Dolby Digital Audio / 2.0 / 48 kHz / 224 kbps / DN -4dB
********************
PLAYLIST: 00011.MPLS
********************
<--- BEGIN FORUMS PASTE --->
Код:
Total   Video
Title                                                           Codec   Length  Movie Size      Disc Size       Bitrate Bitrate Main Audio Track                          Secondary Audio Track
-----                                                           ------  ------- --------------  --------------  ------- ------- ------------------                        ---------------------
00011.MPLS                                                      MPEG-2  0:01:57 274 268 160     19 733 998 659  18,64   17,55   DD AC3 2.0 224Kbps
Код:
DISC INFO:
Disc Title:     NAVY_SEALS
Disc Size:      19 733 998 659 bytes
Protection:     AACS
BD-Java:        No
BDInfo:         0.5.8
PLAYLIST REPORT:
Name:                   00011.MPLS
Length:                 0:01:57.742 (h:m:s.ms)
Size:                   274 268 160 bytes
Total Bitrate:          18,64 Mbps
VIDEO:
Codec                   Bitrate             Description
-----                   -------             -----------
MPEG-2 Video            17554 kbps          1080p / 23,976 fps / 16:9
AUDIO:
Codec                           Language        Bitrate         Description
-----                           --------        -------         -----------
Dolby Digital Audio             English         224 kbps        2.0 / 48 kHz / 224 kbps / DN -4dB
FILES:
Name            Time In         Length          Size            Total Bitrate
----            -------         ------          ----            -------------
00017.M2TS      0:00:00.000     0:01:57.742     274 268 160     18 635
CHAPTERS:
Number          Time In         Length          Avg Video Rate  Max 1-Sec Rate  Max 1-Sec Time  Max 5-Sec Rate  Max 5-Sec Time  Max 10Sec Rate  Max 10Sec Time  Avg Frame Size  Max Frame Size  Max Frame Time
------          -------         ------          --------------  --------------  --------------  --------------  --------------  --------------  --------------  --------------  --------------  --------------
1               0:00:00.000     0:01:57.742     17 554 kbps     43 492 kbps     00:00:42.417    31 479 kbps     00:01:40.391    25 524 kbps     00:01:38.598    91 516 bytes    703 063 bytes   00:01:41.267
STREAM DIAGNOSTICS:
File            PID             Type            Codec           Language                Seconds                 Bitrate                 Bytes           Packets
----            ---             ----            -----           --------                --------------          --------------          -------------   -----
00017.M2TS      4113 (0x1011)   0x02            MPEG-2                                  117,618                 17 572                  258 349 448     1 405 698
00017.M2TS      4352 (0x1100)   0x81            AC3             eng (English)           117,618                 224                     3 297 280       18 400
<---- END FORUMS PASTE ---->
QUICK SUMMARY:
Disc Title: NAVY_SEALS
Disc Size: 19 733 998 659 bytes
Protection: AACS
BD-Java: No
Playlist: 00011.MPLS
Size: 274 268 160 bytes
Length: 0:01:57.742
Total Bitrate: 18,64 Mbps
Video: MPEG-2 Video / 17554 kbps / 1080p / 23,976 fps / 16:9
Audio: English / Dolby Digital Audio / 2.0 / 48 kHz / 224 kbps / DN -4dB
********************
PLAYLIST: 00020.MPLS
********************
<--- BEGIN FORUMS PASTE --->
Код:
Total   Video
Title                                                           Codec   Length  Movie Size      Disc Size       Bitrate Bitrate Main Audio Track                          Secondary Audio Track
-----                                                           ------  ------- --------------  --------------  ------- ------- ------------------                        ---------------------
00020.MPLS                                                      MPEG-2  0:01:54 267 104 256     19 733 998 659  18,73   17,64   DD AC3 2.0 224Kbps
Код:
DISC INFO:
Disc Title:     NAVY_SEALS
Disc Size:      19 733 998 659 bytes
Protection:     AACS
BD-Java:        No
BDInfo:         0.5.8
PLAYLIST REPORT:
Name:                   00020.MPLS
Length:                 0:01:54.114 (h:m:s.ms)
Size:                   267 104 256 bytes
Total Bitrate:          18,73 Mbps
VIDEO:
Codec                   Bitrate             Description
-----                   -------             -----------
MPEG-2 Video            17640 kbps          1080p / 23,976 fps / 16:9
AUDIO:
Codec                           Language        Bitrate         Description
-----                           --------        -------         -----------
Dolby Digital Audio             English         224 kbps        2.0 / 48 kHz / 224 kbps / DN -4dB
FILES:
Name            Time In         Length          Size            Total Bitrate
----            -------         ------          ----            -------------
00027.M2TS      0:00:00.000     0:01:54.114     267 104 256     18 725
CHAPTERS:
Number          Time In         Length          Avg Video Rate  Max 1-Sec Rate  Max 1-Sec Time  Max 5-Sec Rate  Max 5-Sec Time  Max 10Sec Rate  Max 10Sec Time  Avg Frame Size  Max Frame Size  Max Frame Time
------          -------         ------          --------------  --------------  --------------  --------------  --------------  --------------  --------------  --------------  --------------  --------------
1               0:00:00.000     0:01:54.114     17 640 kbps     44 124 kbps     00:00:27.652    33 342 kbps     00:00:14.597    25 097 kbps     00:00:13.179    91 968 bytes    630 394 bytes   00:00:01.918
STREAM DIAGNOSTICS:
File            PID             Type            Codec           Language                Seconds                 Bitrate                 Bytes           Packets
----            ---             ----            -----           --------                --------------          --------------          -------------   -----
00027.M2TS      4113 (0x1011)   0x02            MPEG-2                                  113,989                 17 660                  251 624 361     1 369 096
00027.M2TS      4352 (0x1100)   0x81            AC3             eng (English)           113,989                 224                     3 196 032       17 835
<---- END FORUMS PASTE ---->
QUICK SUMMARY:
Disc Title: NAVY_SEALS
Disc Size: 19 733 998 659 bytes
Protection: AACS
BD-Java: No
Playlist: 00020.MPLS
Size: 267 104 256 bytes
Length: 0:01:54.114
Total Bitrate: 18,73 Mbps
Video: MPEG-2 Video / 17640 kbps / 1080p / 23,976 fps / 16:9
Audio: English / Dolby Digital Audio / 2.0 / 48 kHz / 224 kbps / DN -4dB

Используемый софт

tsMuxer - разборка Blu-ray, BD-Remux
FFMpegSource - индексирование
Rhozet Carbon Coder - конвертация видео
AviSynth - обработка видео
Eac3To - извлечение WAV
Sonic Foundry Soft Encode - конвертация из формата WAV в AC3
Subtitle Edit, DVDSubEdit - редактирование субтитров
MuxMan - сборка видео
Adobe Photoshop, DVD Architect Pro - меню
DvdReMakePro - сборка диска

Скрипт

LoadPlugin("C:\Program Files\FFMpegSource2\ffms2.dll")
FFVideoSource("J:\NAVY_SEALS\00025.track_4113.mpv")
LoadPlugin("C:\Program Files\AutoYUY2\AutoYUY2.dll")
AutoYUY2()
LoadPlugin("C:\Program Files\ColorMatrix\ColorMatrix.dll")
ColorMatrix(mode="Rec.709->Rec.601", inputFR=false, clamp=0)
Lanczos4Resize(720, 480)

Точка перехода

DVDInfo

Title: Зарубежное кино (DVD)
Size: 7.78 Gb ( 8 159 594 KBytes ) - DVD-9
Enabled regions: 1, 2, 3, 4, 5, 6, 7, 8
VTS_01 :
Play Length: 01:53:28
Video: NTSC 16:9 (720x480) VBR, Auto Letterboxed
Audio:
Russian (Dolby AC3, 2 ch)
Russian (Dolby AC3, 2 ch)
Russian (Dolby AC3, 2 ch)
Russian (Dolby AC3, 6 ch)
English (Dolby AC3, 6 ch)
Subtitles:
English
Espanol
Korean
Menu Video:
NTSC 4:3 (720x480) VBR
Menu English Language Unit :
Root Menu

Скриншоты меню

Скриншоты

Релиз проверен на софтовых плеерах. Есть проблемы в раздаче - пишите ЛС

_________________
Показать сообщения:    

Текущее время: Сегодня 21:26

Часовой пояс: GMT



Вы не можете начинать темы
Вы не можете отвечать на сообщения
Вы не можете редактировать свои сообщения
Вы не можете удалять свои сообщения
Вы не можете голосовать в опросах
Вы не можете прикреплять файлы к сообщениям
Вы не можете скачивать файлы
Наши партнеры: интернет магазин Ивановского трикотажа textilla.ru