Важное объявление!
У Нас Все раздачи мультитрекерные, при нуле пиров в релизах, можете смело вставать на закачку!
 
Автор Сообщение

HUNTER

Стаж:
4 года 4 месяца
Сообщений:
56722

Репутация: 101

[+] [-]
Вне форума [Профиль] [ЛС]

-Монстры на каникулах / Hotel Transylvania--
Год выпуска: 2012
Выпущено:США ,Columbia Pictures, Sony Pictures Animation
Жанр: Мультфильм, комедия, семейный
Продолжительность: 01:31:31
Озвучка:Дубляж [Line]
Субтитры: НЕТ--Режиссер: Геннадий Тартаковский--В ролях: Адам Сэндлер, Селена Гомес, Энди Сэмберг, Стив Бушеми, Кевин Джеймс, Дэвид Спейд, Фрэн Дрешер, Джон Ловиц, Молли Шеннон, Си-Ло
Роли дублировали: Сергей Бурунов, Татьяна Лазарева, Александр Пушной, Полина Гагарина, Михаил Шац ...--Описание: По иронии судьбы самый молодой представитель легендарной династии охотников на чудовищ и вампиров Саймон Ван Хельсинг влюбляется в дочь Дракулы. Понимая, что они кровные враги, трансильванские «Ромео» и «Джульетта» решают во что бы то ни стало установить мир между чудовищами и людьми.--Качество: BDRip-AVC 1080p
Формат: MPEG-4
Видео кодек: H264
Видео: 5417Кбит/сек,1920х1080(16х9),в 25.000кадр/сек,AVC(Baseline@L4.0)(1Ref Frames)
Аудио кодек: AAC
Аудио Russian Dolby Digital 5.1:456Кбит/сек,44.1КГц,6каналов,AAC,(Version4)(LC)--

Рейтинги

--

Доп. информация:

Русская звуковая дорожка сделана путем наложения чистого голоса озвучивателей на центральный канал оригинальной дорожки. Качество идентично английской звуковой дорожке.
--

MediaInfo

Общее
Полное имя : D:\М У Л Ь Т Ф И Л Ь М Ы\Hotel_Transylvania_2012_RUS_DD5.1_x264_Nikolai.Baranov_ВDRip-AVC_(1080p).mp4
Формат : MPEG-4
Профиль формата : Base Media
Идентификатор кодека : isom
Размер файла : 3,76 Гбайт
Продолжительность : 1 ч. 31 м.
Режим общего битрейта : Переменный
Общий поток : 5878 Кбит/сек
Дата кодирования : UTC 2013-01-12 03:02:14
Дата пометки : UTC 2013-01-12 03:02:14
Программа кодирования : Lavf51.12.1
Видео
Идентификатор : 1
Формат : AVC
Формат/Информация : Advanced Video Codec
Профиль формата : [url=mailto:Baseline@L4.0]Baseline@L4.0[/url]
Параметр CABAC формата : Нет
Параметр ReFrames формата : 1 кадр
Параметр GOP формата : M=1, N=12
Идентификатор кодека : avc1
Идентификатор кодека/Информация : Advanced Video Coding
Продолжительность : 1 ч. 31 м.
Вид битрейта : Переменный
Битрейт : 5417 Кбит/сек
Максимальный битрейт : 7800 Кбит/сек
Ширина : 1920 пикселей
Высота : 1080 пикселей
Соотношение сторон : 16:9
Режим частоты кадров : Постоянный
Частота кадров : 25,000 кадров/сек
Частота кадров в оригинале : 24,000 кадра/сек
Цветовое пространство : YUV
Субдискретизация насыщенности : 4:2:0
Битовая глубина : 8 бит
Тип развёртки : Прогрессивная
Бит/(Пиксели*Кадры) : 0.105
Размер потока : 3,46 Гбайт (92%)
Дата кодирования : UTC 2013-01-12 03:02:14
Дата пометки : UTC 2013-01-12 03:02:14
Аудио
Идентификатор : 2
Формат : AAC
Формат/Информация : Advanced Audio Codec
Профиль формата : LC
Идентификатор кодека : 40
Продолжительность : 1 ч. 31 м.
Вид битрейта : Переменный
Битрейт : 456 Кбит/сек
Каналы : 6 каналов
Расположение каналов : Front: L C R, Side: L R, LFE
Частота : 44,1 КГц
Метод сжатия : С потерями
Размер потока : 298 Мбайт (8%)
Дата кодирования : UTC 2013-01-12 03:02:14
Дата пометки : UTC 2013-01-12 03:02:14
--

Скриншоты

-- --Релиз от: Nikolai.Baranov --

_________________
Показать сообщения:    

Текущее время: Сегодня 12:07

Часовой пояс: GMT



Вы не можете начинать темы
Вы не можете отвечать на сообщения
Вы не можете редактировать свои сообщения
Вы не можете удалять свои сообщения
Вы не можете голосовать в опросах
Вы не можете прикреплять файлы к сообщениям
Вы не можете скачивать файлы