Важное объявление!
У Нас Все раздачи мультитрекерные, при нуле пиров в релизах, можете смело вставать на закачку!
 
Автор Сообщение

HUNTER

Стаж:
4 года 4 месяца
Сообщений:
56722

Репутация: 101

[+] [-]
Вне форума [Профиль] [ЛС]

Монстры на каникулах 2 / Hotel Transylvania 2
Страна: США
Жанр: Мультипликация
Продолжительность: 01:29:49
Год выпуска: 2015
Перевод: Профессиональный (дублированный) [Line]
Русские субтитры: нет-Режиссёр: Генндий Тартаковский / Genndy Tartakovsky
Роли озвучивали: Адам Сэндлер, Энди Сэмберг, Селена Гомес, Кевин Джеймс, Стив Бушеми, Дэвид Спейд, Кигэн-Майкл Ки, Эшер Блинкофф, Фрэн Дрешер, Молли Шеннон-Описание: Граф Дракула выдает свою очаровательную дочь замуж за парня из мира людей, и у молодой «смешанной» пары рождается сын.
Станет ли этот ребенок человеком или вампиром?-Качество: WEB-DL 1080p
Формат: MKV
Видео: AVC, 1920x1028 (1.868), 23.976 fps, 5 002 Kbps (0.106 bit/pixel)
Аудио 1: AC-3, 48.0 KHz, 2 ch, 192 Kbps, CBR (Russian) [Line]
Аудио 2: AC-3, 48.0 KHz, 6 ch, 384 Kbps, CBR (English)
Субтитры: English
Семпл: Забираем тут

Подробные технические данные

GeneralUnique ID : 230534630278636217710825545094997368454 (0xAD6F5AD205B811519FDA9E15365A5E86)Complete name : Hotel Transylvania 2 2015 1080p WEB-DL.mkvFormat : MatroskaFormat version : Version 4 / Version 2File size : 3.57 GiBDuration : 1h 29mnOverall bit rate : 5 692 KbpsEncoded date : UTC 2015-12-22 06:46:52Writing application : mkvmerge v8.3.0 ('Over the Horizon') 64bitWriting library : libebml v1.3.1 + libmatroska v1.4.2DURATION : 01:29:16.192000000NUMBER_OF_FRAMES : 167381NUMBER_OF_BYTES : 128548608_STATISTICS_WRITING_APP : mkvmerge v8.3.0 ('Over the Horizon') 64bit_STATISTICS_WRITING_DATE_UT : 2015-12-22 06:46:52_STATISTICS_TAGS : BPS DURATION NUMBER_OF_FRAMES NUMBER_OF_BYTES
VideoID : 1Format : AVCFormat/Info : Advanced Video CodecFormat profile : High@L4Format settings, CABAC : YesFormat settings, ReFrames : 4 framesCodec ID : V_MPEG4/ISO/AVCDuration : 1h 29mnBit rate : 5 002 KbpsWidth : 1 920 pixelsHeight : 1 028 pixelsDisplay aspect ratio : 1.85:1Frame rate mode : ConstantFrame rate : 23.976 fpsColor space : YUVChroma subsampling : 4:2:0Bit depth : 8 bitsScan type : ProgressiveBits/(Pixel*Frame) : 0.106Stream size : 3.14 GiB (88%)Language : EnglishDefault : YesForced : NoColor range : LimitedColor primaries : BT.709Transfer characteristics : BT.709Matrix coefficients : BT.709
Audio #1ID : 2Format : AC-3Format/Info : Audio Coding 3Mode extension : CM (complete main)Format settings, Endianness : BigCodec ID : A_AC3Duration : 1h 29mnBit rate mode : ConstantBit rate : 192 KbpsChannel(s) : 2 channelsChannel positions : Front: L RSampling rate : 48.0 KHzCompression mode : LossyStream size : 123 MiB (3%)Language : RussianDefault : YesForced : No
Audio #2ID : 3Format : AC-3Format/Info : Audio Coding 3Mode extension : CM (complete main)Format settings, Endianness : BigCodec ID : A_AC3Duration : 1h 29mnBit rate mode : ConstantBit rate : 384 KbpsChannel(s) : 6 channelsChannel positions : Front: L C R, Side: L R, LFESampling rate : 48.0 KHzCompression mode : LossyStream size : 247 MiB (7%)Language : EnglishDefault : NoForced : No
TextID : 4Format : UTF-8Codec ID : S_TEXT/UTF8Codec ID/Info : UTF-8 Plain TextLanguage : EnglishDefault : NoForced : No
Menu00:00:00.000 : en:100:05:45.000 : en:200:09:16.000 : en:300:13:07.000 : en:400:19:26.000 : en:500:22:40.000 : en:600:30:02.000 : en:700:36:09.000 : en:800:39:57.000 : en:900:45:50.000 : en:1000:51:18.000 : en:1100:56:50.000 : en:1201:03:57.000 : en:1301:08:27.000 : en:1401:13:24.000 : en:1501:18:30.000 : en:16

Скриншоты



_________________
Показать сообщения:    

Текущее время: Сегодня 10:48

Часовой пояс: GMT



Вы не можете начинать темы
Вы не можете отвечать на сообщения
Вы не можете редактировать свои сообщения
Вы не можете удалять свои сообщения
Вы не можете голосовать в опросах
Вы не можете прикреплять файлы к сообщениям
Вы не можете скачивать файлы