Важное объявление!
У Нас Все раздачи мультитрекерные, при нуле пиров в релизах, можете смело вставать на закачку!
 
Автор Сообщение

HUNTER

Стаж:
4 года 4 месяца
Сообщений:
56772

Репутация: 101

[+] [-]
Вне форума [Профиль] [ЛС]

Молодое правосудие / Young Justice
Год выпуска: 2010-2012
Страна: США
Жанр: Мультсериал, Фантастика, Боевик
Продолжительность: ~00:22:50 на серию
Озвучивание: Любительское (одноголосое закадровое) ZM
Перевод на русский: Kapets's Studios (1-2), Supermedia (3-18), Aggie32 (19-26)-Режиссёр: Сэм Реджистер / Sam Register
Роли озвучивали: Джесси МакКартни, Хари Пэйтон, Нолан Норт, Джейсон Спайсэк, Дэника МакКеллар, Криспин Фриман, Брюс Гринвуд, Джордж Идс, Стефани Николь Лемелин, Рене Обержонуа-Описание: Юная справедливость - новый мультсериал от компании DC рассказывающий о группе подростков-помощников СуперГероев из Лиги Справедливости. Они захотели утвердиться и доказать своим опытным наставникам, что они готовы самостоятельно выполнять задания чрезвычайной опасности. И теперь они юная справедливость - команда, состоящая из шестерых человек: Супербой, Кид Флэш, Мисс Марсианка, Аквалэд, Робин, Артемида; под предводительством всей Лиги, они совершают опасные задания, выполняя их с долей юмора, выясняя отношения между собой и, конечно же, побеждают самых опасных врагов.
Качество: WEB-DLRip (Исходник)
Формат: AVI
Видео кодек: XviD
Аудио кодек: AC3
Видео: 720x400 (1.80:1), 23.976 fps, XviD build 50 ~1650 kbps avg, 0.24 bit/pixel
Аудио: 48 kHz, AC3 Dolby Digital, 2/0 (L,R) ch, ~192 kbps

Внимание!!! Раздача ведётся путём добавления новых серий

Внимание! Раздача ведётся путём добавления новых серий; при каждом добавлении создётся новый торрент. Чтобы начать докачку новой серии, пользователям необходимо сделать следующее:
(1) остановить скачивание
(2) удалить старый торрент у себя из клиента (старые серии удалять не надо)
(3) скачать новый торрент и запустить его у себя в клиенте вместо старого, при этом указать клиенту путь в старую папку куда и должно происходить скачивание новых серий. Ваш клиент при этом должен произвести хеширование (проверку) старой папки (если не производит сам - помогите ему сделать это), и будет докачивать только те серии, которых у вас ещё нет. Старые серии при этом не удаляются, а продолжают раздаваться! Eсли вы уже удалили старые серии, то предотвратить повторную закачку старых серий можно, отжав галочку в соответсвующих местах при запуске нового торрента.
По возможности, желательно не удалять старые серии как можно дольше, чтобы релизёр не столько продолжал раздавать старые серии, а смог сконцентрироваться на новых.

MI

C:\ZM\Young Justice Season 1 [WEB.DLRip]\[SUPERMEDIA]Young.Justice.S01E01.Independence.Day.Part.1.WEB.DLRip[ZM-SHOW].avi
General
Complete name : C:\ZM\Young Justice Season 1 [WEB.DLRip]\[SUPERMEDIA]Young.Justice.S01E01.Independence.Day.Part.1.WEB.DLRip[ZM-SHOW].avi
Format : AVI
Format/Info : Audio Video Interleave
File size : 300 MiB
Duration : 22mn 40s
Overall bit rate : 1 852 Kbps
Writing application : VirtualDubMod 1.5.10.3 | www.virtualdub-fr.org || (build 2550/release)
Writing library : VirtualDubMod build 2550/release
Video #0
ID : 0
Format : MPEG-4 Visual
Format profile : Advanced Simple@L5
Format settings, BVOP : Yes
Format settings, QPel : No
Format settings, GMC : No warppoints
Format settings, Matrix : Default (H.263)
Codec ID : XVID
Codec ID/Hint : XviD
Duration : 22mn 40s
Bit rate : 1 651 Kbps
Width : 720 pixels
Height : 400 pixels
Display aspect ratio : 16:9
Frame rate : 23.976 fps
Color space : YUV
Chroma subsampling : 4:2:0
Bit depth : 8 bits
Scan type : Progressive
Bits/(Pixel*Frame) : 0.239
Stream size : 268 MiB (89%)
Writing library : XviD 1.2.1 (UTC 2008-12-04)
Audio #1
ID : 1
Format : AC-3
Format/Info : Audio Coding 3
Mode extension : CM (complete main)
Codec ID : 2000
Duration : 22mn 40s
Bit rate mode : Constant
Bit rate : 192 Kbps
Channel(s) : 2 channels
Channel positions : Front: L R
Sampling rate : 48.0 KHz
Bit depth : 16 bits
Stream size : 31.1 MiB (10%)
Alignment : Split accross interleaves
Interleave, duration : 42 ms (1.00 video frame)
Interleave, preload duration : 500 ms

Скриншоты

Релиз подготовлен группой ZM-SHOW

_________________
Показать сообщения:    

Текущее время: Сегодня 09:01

Часовой пояс: GMT



Вы не можете начинать темы
Вы не можете отвечать на сообщения
Вы не можете редактировать свои сообщения
Вы не можете удалять свои сообщения
Вы не можете голосовать в опросах
Вы не можете прикреплять файлы к сообщениям
Вы не можете скачивать файлы