Важное объявление!
У Нас Все раздачи мультитрекерные, при нуле пиров в релизах, можете смело вставать на закачку!
 
Автор Сообщение

HUNTER

Стаж:
4 года 4 месяца
Сообщений:
56722

Репутация: 101

[+] [-]
Вне форума [Профиль] [ЛС]

Молодая кровь / Youngblood
Страна: США
Жанр: спортивная драма
Год выпуска: 1986
Продолжительность: 01:45:25
Перевод: Профессиональный (двухголосый закадровый)
Cубтитры: нет
Режиссер: Питер Маркл / Peter Markle
В ролях: Роб Лоу, Синтия Гибб, Патрик Суэйзи, Эд Лотер, Джим Янгс, Эрик Нестеренко, Джордж Дж. Финн, Фионнула Флэнаган, Кен Джеймс, Питер Фоссетт
Описание: Дин Янгблад хочет вырваться с фермы отца, мечтает играть в малой хоккейной лиге Канады, где хочет стать лучшим игроком. Его полуслепой брат Келли, который когда-то играл в той же команде, до того как получил травму, говорит отцу, что будет работать за двоих, чтобы Дин мог осуществить свою мечту. Отец соглашается, и Дин уезжает. Он приезжает в город невинным парнем, которого уже через неделю соблазняет его домовладелица мисс Макгилл. Над ним смеются его друзья по команде. Он влюбляется в первую же девушку, с которой ему удается познакомиться. Она оказалась дочерью тренера и ответила ему взаимностью…
Доп. информация:

скрытый текст

отличие от раздачи http://rutracker.org/forum/viewtopic.php?t=2607234
1) перевод с профессионального одноголосого на профессиональный двухголосый
2) на видео конкурента сверху снизу присутствуют чёрные полосы, в моём нет
3) вес файла с 9.66 GB на 5.78 GB

Сэмпл: http://rusfolder.com/42173672
Тип релиза: HDTV 1080i
Контейнер: TS
Видео: AVC/H.264, PAL, 1920х1080 (16:9), 25 fps, 7262 Kbps
Аудио: русский, MP-2, 48000 Hz, 192 Кбит/сек, 2 ch

MediaInfo

Общее
Идентификатор : 1 (0x1)
Полное имя : D:\Новая папка\Молодая кровь.ts
Формат : MPEG-TS
Размер файла : 5,78 Гбайт
Продолжительность : 1 ч. 45 м.
Режим общего битрейта : Переменный
Общий поток : 7844 Кбит/сек
Видео
Идентификатор : 3731 (0xE93)
Идентификатор меню : 1 (0x1)
Формат : AVC
Формат/Информация : Advanced Video Codec
Профиль формата : Main@L4.0
Параметр CABAC формата : Да
Параметр ReFrames формата : 3 кадра
Идентификатор кодека : 27
Продолжительность : 1 ч. 45 м.
Битрейт : 7262 Кбит/сек
Ширина : 1920 пикселей
Высота : 1080 пикселей
Соотношение сторон : 16:9
Частота кадров : 25,000 кадров/сек
Стандарт вещания : Component
Цветовое пространство : YUV
Субдискретизация насыщенности : 4:2:0
Битовая глубина : 8 бит
Тип развёртки : Чересстрочная
Порядок развёртки : Верхнее поле первое
Бит/(Пиксели*Кадры) : 0.140
Размер потока : 5,35 Гбайт (93%)
Основные цвета : BT.709
Характеристики трансфера : BT.709
Коэффициенты матрицы : BT.709
Аудио
Идентификатор : 3732 (0xE94)
Идентификатор меню : 1 (0x1)
Формат : MPEG Audio
Версия формата : Version 1
Профиль формата : Layer 2
Идентификатор кодека : 3
Продолжительность : 1 ч. 45 м.
Вид битрейта : Постоянный
Битрейт : 192 Кбит/сек
Каналы : 2 канала
Частота : 48,0 КГц
Метод сжатия : С потерями
Размер потока : 145 Мбайт (2%)
Язык : Russian

Скриншот c названием фильма

Скриншоты


_________________
Показать сообщения:    

Текущее время: Сегодня 12:56

Часовой пояс: GMT



Вы не можете начинать темы
Вы не можете отвечать на сообщения
Вы не можете редактировать свои сообщения
Вы не можете удалять свои сообщения
Вы не можете голосовать в опросах
Вы не можете прикреплять файлы к сообщениям
Вы не можете скачивать файлы