Важное объявление!
У Нас Все раздачи мультитрекерные, при нуле пиров в релизах, можете смело вставать на закачку!
 
Автор Сообщение

HUNTER

Стаж:
4 года 4 месяца
Сообщений:
56848

Репутация: 101

[+] [-]
Вне форума [Профиль] [ЛС]

-Мой первый раз / Ma premiere fois-
Страна: Франция
Студия: Banque Postale Image 4, Canal [fr], Centre National de la Cinйmatographie (CNC), Cinй Cinйmas
Жанр: драма, мелодрама
Год выпуска: 2012
Продолжительность: 01:38:49
Перевод: Профессиональный (многоголосый закадровый)
Cубтитры: немецкие
Оригинальная аудиодорожка: французский
Режиссер: Мари-Кастиль Менсьон-Шаар / Marie-Castille Mention-Schaar
В ролях: Эстер Комар, Мартин Каннаво, Венсан Перес, Джудит Эль Зейн, Лили-Флёр Понто, Лолита Шамма, Энн Лорье, Ксавье Мали, Филипп Огуз, Жером Даран-Описание: Девушка встречает парня — беспроигрышная формула романтического фильма. В этой картине влюбленные подростки носят библейские имена — её зовут Сара, его — Захария, что ненавязчиво подчеркивает вневременное значение первых наивных чувств. Ей 18, она — лучшая ученица в классе, он всего на пару лет старше, но уже не прочь поиграть в пресыщенного жизнью «лишнего человека», этакого французского Печорина. Впрочем, разве это преграда для любви?
Основой для фильма послужили автобиографические воспоминания режиссёра Мари-Кастиль Менсьон-Шаар.
- Сэмпл
Тип релиза: BDRip 720p
Контейнер: MKV
Видео: 1280x544p, 24.000 fps, x264 ~4820 kbps
Аудио: Russian: AC3 2.0, 48 kHz, 192 kbps — профессиональный (многоголосый, закадровый)
Аудио: French: DTS 5.1, 48 kHz, 24 bit, 1509 kbps
Формат субтитров: softsub (SRT)

MediaInfo

Ma.Premiere.Fois.2012.FRENCH.720p.BluRay.x264 - CARPEDIEM.mkv
Формат : Matroska
Версия формата : Version 4 / Version 2
Размер файла : 4,50 Гбайт
Продолжительность : 1 ч. 38 м.
Общий поток : 6522 Кбит/сек
Название фильма : Release for СПАМ
Дата кодирования : UTC 2014-02-20 05:54:02
Программа кодирования : mkvmerge v6.2.0 ('Promised Land') built on Apr 28 2013 18:50:30
Библиотека кодирования : libebml v1.3.0 libmatroska v1.4.0
Видео
Идентификатор : 1
Формат : AVC
Формат/Информация : Advanced Video Codec
Профиль формата : High@L3.1
Параметр CABAC формата : Да
Параметр ReFrames формата : 5 кадров
Идентификатор кодека : V_MPEG4/ISO/AVC
Продолжительность : 1 ч. 38 м.
Битрейт : 4820 Кбит/сек
Ширина : 1280 пикселей
Высота : 544 пикселя
Соотношение сторон : 2,35:1
Режим частоты кадров : Постоянный
Частота кадров : 24,000 кадра/сек
Цветовое пространство : YUV
Субдискретизация насыщенности : 4:2:0
Битовая глубина : 8 бит
Тип развёртки : Прогрессивная
Бит/(Пиксели*Кадры) : 0.288
Размер потока : 3,24 Гбайт (72%)
Библиотека кодирования : x264 core 130 r2273 b3065e6
Настройки программы : cabac=1 / ref=5 / deblock=1:-1:-1 / analyse=0x3:0x113 / me=umh / subme=7 / psy=1 / psy_rd=1.00:0.00 / mixed_ref=1 / me_range=16 / chroma_me=1 / trellis=1 / 8x8dct=1 / cqm=0 / deadzone=21,11 / fast_pskip=1 / chroma_qp_offset=-2 / threads=12 / lookahead_threads=2 / sliced_threads=0 / nr=0 / decimate=1 / interlaced=0 / bluray_compat=0 / constrained_intra=0 / bframes=6 / b_pyramid=2 / b_adapt=1 / b_bias=0 / direct=3 / weightb=1 / open_gop=0 / weightp=2 / keyint=240 / keyint_min=24 / scenecut=40 / intra_refresh=0 / rc_lookahead=40 / rc=2pass / mbtree=1 / bitrate=4820 / ratetol=1.0 / qcomp=0.60 / qpmin=0 / qpmax=69 / qpstep=4 / cplxblur=20.0 / qblur=0.5 / ip_ratio=1.40 / aq=1:1.00
Язык : English
Default : Да
Forced : Нет
Основные цвета : BT.709
Характеристики трансфера : BT.709
Коэффициенты матрицы : BT.709
Аудио #1
Идентификатор : 2
Формат : AC-3
Формат/Информация : Audio Coding 3
Расширение режима : CM (complete main)
Параметр Endianness формата : Big
Идентификатор кодека : A_AC3
Продолжительность : 1 ч. 38 м.
Вид битрейта : Постоянный
Битрейт : 192 Кбит/сек
Каналы : 2 канала
Расположение каналов : Front: L R
Частота : 48,0 КГц
Битовая глубина : 16 бит
Метод сжатия : С потерями
Размер потока : 136 Мбайт (3%)
Заголовок : Профессиональный многоголосый
Язык : Russian
Default : Нет
Forced : Да
Аудио #2
Идентификатор : 3
Формат : DTS
Формат/Информация : Digital Theater Systems
Режим : 16
Параметр Endianness формата : Big
Идентификатор кодека : A_DTS
Продолжительность : 1 ч. 38 м.
Вид битрейта : Постоянный
Битрейт : 1509 Кбит/сек
Каналы : 6 каналов
Расположение каналов : Front: L C R, Side: L R, LFE
Частота : 48,0 КГц
Битовая глубина : 24 бит
Метод сжатия : С потерями
Размер потока : 1,04 Гбайт (23%)
Заголовок : French
Язык : French
Default : Нет
Forced : Да
Текст
Идентификатор : 4
Формат : UTF-8
Идентификатор кодека : S_TEXT/UTF8
Идентификатор кодека/Информация : UTF-8 Plain Text
Язык : German
Default : Нет
Forced : Нет

Скриншоты


_________________
Показать сообщения:    

Текущее время: Сегодня 07:24

Часовой пояс: GMT



Вы не можете начинать темы
Вы не можете отвечать на сообщения
Вы не можете редактировать свои сообщения
Вы не можете удалять свои сообщения
Вы не можете голосовать в опросах
Вы не можете прикреплять файлы к сообщениям
Вы не можете скачивать файлы
Наши партнеры: интернет магазин Ивановского трикотажа textilla.ru