Важное объявление!
У Нас Все раздачи мультитрекерные, при нуле пиров в релизах, можете смело вставать на закачку!
 
Автор Сообщение

HUNTER

Стаж:
4 года 4 месяца
Сообщений:
56839

Репутация: 101

[+] [-]
Вне форума [Профиль] [ЛС]

Мой научный проект / My Science Project
Год выпуска: 1985
Страна: США
Жанр: фантастика, боевик, комедия, приключения
Продолжительность: 01:34:43
Перевод: Профессиональный (Многоголосый закадровый)
Субтитры: отсутствуют
Оригинальная аудиодорожка: английский
Режиссер: Джонатан Бетуэл / Jonathan R. Betuel
В ролях: Деннис Хоппер, Джон Стокуэлл, Даниэль Фон Цернек, Фишер Стивенс, Рафаэль Сбардж, Ричард Масур, Барри Корбин, Камерон Янг, Энн Уэджворт, Бо Дреманн, Джон Видор, Винсент Барбо, Джейм Альба, Ноэль Конлон, Джексон Боствик, Роберт До Ки, Линда Хой, Майкл Берриман, Памела Спрингстин, Джек О'Лири
Описание: Майкл Харлан — юный лоботряс, которому поручено сделать в школе научный доклад. И герой не находит ничего лучшего, как в поисках какой-нибудь диковины, способной стать темой его выступления, забраться на заброшенную свалку министерства обороны. Что ж, кто ищет, тот всегда найдет. Особенно, когда речь идет о неприятностях.
Майкл набредает на странную штуку, оказывающуюся… инопланетной машиной времени! Только идиоты в погонах могли выкинуть такое сокровище. И только такой незадачливый чудик, как Майкл, мог ненароком запустить этот фантастический агрегат. Перед ним и его однокашниками открывается настолько же заманчивая, насколько и опасная перспектива многочисленных приключений в коридорах времени…


Качество: BDRemux 1080p
Формат: MKV
Видео кодек: H.264
Аудио кодек: AC3
Видео: 1920 x 1080 / MPEG-4 AVC Video / 28673 kbps / 1080p / 23.976 fps / 16:9 / High Profile 4.1
Аудио1: Русский / AC3 / 2.0 / 192 Kbps / 48,0 kHz(MVO)
Аудио2: English / AC3 / 2.0 / 448 kbps / 48 kHz (Original)
Главы

MediaInfo

Общее
Уникальный идентификатор : 226943674906322936085563020004687297638 (0xAABBC30D21EF61BDB7AF07F6B4073C66)
Полное имя : G:\My.Science.Project.1985.BDRemux.1080p.Rus.Eng.mkv
Формат : Matroska
Версия формата : Version 4 / Version 2
Размер файла : 19,4 Гбайт
Продолжительность : 1 ч. 34 м.
Режим общего битрейта : Переменный
Общий поток : 29,3 Мбит/сек
Название фильма : MY SCIENCE PROJECT
Дата кодирования : UTC 2016-03-04 10:42:38
Программа кодирования : mkvmerge v7.3.0 ('Nouages') 32bit built on Oct 22 2014 18:44:01
Библиотека кодирования : libebml v1.3.0 + libmatroska v1.4.1
DURATION : 01:34:43.840000000
NUMBER_OF_FRAMES : 177620
NUMBER_OF_BYTES : 136412160
_STATISTICS_WRITING_APP : mkvmerge v7.3.0 ('Nouages') 32bit built on Oct 22 2014 18:44:01
_STATISTICS_WRITING_DATE_UTC : 2016-03-04 10:42:38
_STATISTICS_TAGS : BPS DURATION NUMBER_OF_FRAMES NUMBER_OF_BYTES
Видео
Идентификатор : 1
Формат : AVC
Формат/Информация : Advanced Video Codec
Профиль формата : High@L4.1
Параметр CABAC формата : Да
Параметр ReFrames формата : 4 кадра
Параметр GOP формата : M=3, N=24
Идентификатор кодека : V_MPEG4/ISO/AVC
Продолжительность : 1 ч. 34 м.
Вид битрейта : Переменный
Битрейт : 28,1 Мбит/сек
Максимальный битрейт : 35,0 Мбит/сек
Ширина : 1920 пикселей
Высота : 1080 пикселей
Соотношение сторон : 16:9
Режим частоты кадров : Постоянный
Частота кадров : 23,976 кадра/сек
Стандарт вещания : NTSC
Цветовое пространство : YUV
Субдискретизация насыщенности : 4:2:0
Битовая глубина : 8 бит
Тип развёртки : Прогрессивная
Бит/(Пиксели*Кадры) : 0.565
Размер потока : 18,6 Гбайт (96%)
Заголовок : My Science Project 1985 1080p Blu-ray AVC DD 2.0
Default : Нет
Forced : Нет
Цветовой диапазон : Limited
Основные цвета : BT.709
Характеристики трансфера : BT.709
Коэффициенты матрицы : BT.709
Аудио #1
Идентификатор : 2
Формат : AC-3
Формат/Информация : Audio Coding 3
Расширение режима : CM (complete main)
Параметр Endianness формата : Big
Идентификатор кодека : A_AC3
Продолжительность : 1 ч. 34 м.
Вид битрейта : Постоянный
Битрейт : 192 Кбит/сек
Каналы : 2 канала
Расположение каналов : Front: L R
Частота : 48,0 КГц
Метод сжатия : С потерями
Размер потока : 130 Мбайт (1%)
Заголовок : MVO AC3 2.0 192 kbps
Язык : Russian
Default : Нет
Forced : Нет
Аудио #2
Идентификатор : 3
Формат : AC-3
Формат/Информация : Audio Coding 3
Расширение режима : CM (complete main)
Параметр Endianness формата : Big
Идентификатор кодека : A_AC3
Продолжительность : 1 ч. 34 м.
Вид битрейта : Постоянный
Битрейт : 448 Кбит/сек
Каналы : 2 канала
Расположение каналов : Front: L R
Частота : 48,0 КГц
Метод сжатия : С потерями
Размер потока : 304 Мбайт (2%)
Заголовок : Original AC3 2.0 448 kbps
Язык : English
Default : Нет
Forced : Нет
Меню
00:00:00.000 : en:00:00:00.000
00:15:27.343 : en:00:15:27.343
00:44:28.332 : en:00:44:28.332
01:08:12.213 : en:01:08:12.213
01:30:57.369 : en:01:30:57.369

Скриншоты


_________________
Показать сообщения:    

Текущее время: Сегодня 23:50

Часовой пояс: GMT



Вы не можете начинать темы
Вы не можете отвечать на сообщения
Вы не можете редактировать свои сообщения
Вы не можете удалять свои сообщения
Вы не можете голосовать в опросах
Вы не можете прикреплять файлы к сообщениям
Вы не можете скачивать файлы