Важное объявление!
У Нас Все раздачи мультитрекерные, при нуле пиров в релизах, можете смело вставать на закачку!
 
Автор Сообщение

HUNTER

Стаж:
4 года 4 месяца
Сообщений:
56829

Репутация: 101

[+] [-]
Вне форума [Профиль] [ЛС]

Мой маленький пони: Девочки из Эквестрии - Игры Дружбы / My Little Pony: Equestria Girls - Friendship Games
Страна: США
Жанр: Приключения, семейный, фэнтези
Продолжительность: 01:12:22
Год выпуска: 2015
Перевод 1: Профессиональный одноголосый (телеканал Kidzone)
Перевод 2: Профессиональный дублированный (телеканал ПлюсПлюс) (украинский)
Русские субтитры: нет
Режиссёр: Джэйсон Тиссен / Jayson Thiessen, Иши Руделл / Ishi Rudell
Роли озвучивали: Тара Стронг, Ребекка Шойкет, Эшли Болл, Андреа Либман, Табита Сен-Жермен, Кэти Уэслак и другие
Описание: Студенты Кантерлота готовятся к Играм Дружбы — спортивному мероприятию, проводимому между командами Вондерколт и Шедоуболт раз в четыре года. Игры предназначены для того, чтобы гармонизировать две школы, но студенты из школы Кантерлота возмущаются на учеников Кристальной Академии за их неспортивное поведения и жажду победы. Селестия и Луна предупредили Сансет Шиммер и ее друзей, что магия в играх запрещена.
[url=tracker.php?nm=Equestria+Girls+Friendship+Games]Предыдущие и альтернативные раздачи[/url]
Рейтинг:
Качество: BDRip [url=viewtopic.php?t=5131825](Исходник)[/url]
Формат: AVI
Видео: XviD, 720x400, 23.976 fps, 2030 kbps
Аудио 1 Rus: AC3 48 kHz, 2 ch, 192 kbps (телеканал Kidzone)
Аудио 2 Ukr: AC3 48 kHz, 2 ch, 192 kbps (телеканал ПлюсПлюс)
Аудио 3 Eng: AC3 48 kHz, 6 ch, 448 kbps (оригинальный звук)
Субтитры: отсутствуют

Скриншоты

Дополнительная информация

В раздаче представлены профессиональный одноголосый закадровый перевод телеканала Kidzone (благодарность ALEKS KV), украинский дубляж телеканала ПлюсПлюс и оригинальная аудиодорожка. Множество других любительских озвучек и русские и английские субтитры можно найти в [url=viewtopic.php?t=5118635]отдельной раздаче[/url], впрочем как и [url=viewtopic.php?t=5100883]дополнительные материалы[/url].

Подробные технические данные

ОбщееПолное имя : D:\Mults\mlp.eg.friendship.games.2015.bdrip.tv.aviФормат : AVIФормат/Информация : Audio Video InterleaveРазмер файла : 1,46 ГбайтПродолжительность : 1 ч. 12 м.Общий поток : 2881 Кбит/секПрограмма кодирования : VirtualDubMod 1.5.10.2 (build 2540/release)Библиотека кодирования : VirtualDubMod build 2540/release
ВидеоИдентификатор : 0Формат : MPEG-4 VisualПрофиль формата : Advanced Simple@L5Параметр BVOP формата : НетПараметр QPel формата : НетПараметр GMC формата : Без точки переходаПараметр матрицы формата : ВыборочнаяИдентификатор кодека : XVIDИдентификатор кодека/Подсказка : XviDПродолжительность : 1 ч. 12 м.Битрейт : 2030 Кбит/секШирина : 720 пикселейВысота : 400 пикселейСоотношение сторон : 16:9Частота кадров : 23,976 кадра/секЦветовое пространство : YUVСубдискретизация насыщенности : 4:2:0Битовая глубина : 8 битТип развёртки : ПрогрессивнаяМетод сжатия : С потерямиБит/(Пиксели*Кадры) : 0.294Размер потока : 1,03 Гбайт (70%)Библиотека кодирования : XviD 64
Аудио #1Идентификатор : 1Формат : AC-3Формат/Информация : Audio Coding 3Расширение режима : CM (complete main)Параметр Endianness формата : BigИдентификатор кодека : 2000Продолжительность : 1 ч. 12 м.Вид битрейта : ПостоянныйБитрейт : 192 Кбит/секКаналы : 2 каналаРасположение каналов : Front: L RЧастота : 48,0 КГцБитовая глубина : 16 битМетод сжатия : С потерямиРазмер потока : 99,4 Мбайт (7%)Выравнивание : Разделение по промежуткамПродолжительность промежутка : 42 мс. (1,00 видеокадр)Время предзагрузки промежутка : 500 мс.
Аудио #2Идентификатор : 2Формат : AC-3Формат/Информация : Audio Coding 3Расширение режима : CM (complete main)Параметр Endianness формата : BigИдентификатор кодека : 2000Продолжительность : 1 ч. 12 м.Вид битрейта : ПостоянныйБитрейт : 192 Кбит/секКаналы : 2 каналаРасположение каналов : Front: L RЧастота : 48,0 КГцБитовая глубина : 16 битМетод сжатия : С потерямиРазмер потока : 99,4 Мбайт (7%)Выравнивание : Разделение по промежуткамПродолжительность промежутка : 42 мс. (1,00 видеокадр)Время предзагрузки промежутка : 500 мс.
Аудио #3Идентификатор : 3Формат : AC-3Формат/Информация : Audio Coding 3Расширение режима : CM (complete main)Параметр Endianness формата : BigИдентификатор кодека : 2000Продолжительность : 1 ч. 12 м.Вид битрейта : ПостоянныйБитрейт : 448 Кбит/секКаналы : 6 каналовРасположение каналов : Front: L C R, Side: L R, LFEЧастота : 48,0 КГцБитовая глубина : 16 битМетод сжатия : С потерямиРазмер потока : 232 Мбайт (16%)Выравнивание : Разделение по промежуткамПродолжительность промежутка : 42 мс. (1,00 видеокадр)Время предзагрузки промежутка : 500 мс.

_________________
Показать сообщения:    

Текущее время: Сегодня 11:27

Часовой пояс: GMT



Вы не можете начинать темы
Вы не можете отвечать на сообщения
Вы не можете редактировать свои сообщения
Вы не можете удалять свои сообщения
Вы не можете голосовать в опросах
Вы не можете прикреплять файлы к сообщениям
Вы не можете скачивать файлы