Важное объявление!
У Нас Все раздачи мультитрекерные, при нуле пиров в релизах, можете смело вставать на закачку!
 
Автор Сообщение

HUNTER

Стаж:
4 года 4 месяца
Сообщений:
56808

Репутация: 101

[+] [-]
Вне форума [Профиль] [ЛС]

-Мой маленький пони: Девочки из Эквестрии - Игры Дружбы / My Little Pony: Equestria Girls - Friendship Games-
Английское название: My Little Pony: Equestria Girls - Friendship Games
Русские названия: Мой маленький пони: Девочки из Эквестрии - Игры Дружбы
Год выпуска: 2015.
Страна: США, Канада
Жанр: Приключения, семейный, фэнтези
Продолжительность: 1:12:22
Перевод: Любительский (Одноголосный) ALEKS KV
Перевод: Любительский (Двухголосный) Трина Дубовицкая и ALEKS KV
Перевод: Профессиональный (Полное Дублирование) ПлюсПлюс
Субтитры: Русские Anon2Anon
Субтитры: Русские TheDoctor Team
Субтитры: Английские-Описание: Студенты Кантерлота готовятся к Играм Дружбы — спортивному мероприятию, проводимому между командами Вондерколт и Шедоуболт раз в четыре года. Игры предназначены для того, чтобы гармонизировать две школы, но студенты из школы Кантерлота возмущаются на учеников Кристальной Академии за их неспортивное поведения и жажду победы. Селестия и Луна предупредили Сансет Шиммер и ее друзей, что магия в играх запрещена.-Релиз от: -Над релизом работали:
vitaly3 .......Изначальные сборки раздач Friendship Games
ALEKS KV .......Энкод, итоговый муксинг, озвучка
yp1 .......Предоставил образ BD диска
Trina_D .......Озвучка
Hanway .......Предоставил исходник украинского дубляжа
-
Ссылка на остальные раздачи
-
Сэмпл
Качество: BDRip 1080p
Формат видео: MKV
Видео кодек: x264
Аудио кодек: AC3, DTS
Видео: x264 8bit 1920х1080p 23.976fps 5443Kbps 16:9 High Profile 4.1
Аудио:

  • русская: DTS 48000Hz 24bit |5.1| 1509Kbps [ALEKS KV]
  • русская: DTS 48000Hz 24bit |5.1| 1509Kbps [Трина Дубовицкая и ALEKS KV]
  • украинская: Dolby AC3 48000Hz 16bit |DualMono| 192Kbps [ПлюсПлюс]
  • английская: DTS 48000Hz 24bit |5.1| 1509Kbps [Оригинал]
  • сomments: Dolby AC3 48000Hz 16bit |Stereo| 192Kbps [Оригинал]
    Субтитры:
  • русские: Anon2Anon
  • русские: TheDoctor Team
  • английские: Оригинал (Color)
  • английские: Оригинал (SDH) (srt)
  • английские: Оригинал (PGS) (sup)
    -

    Подробные технические данные

    GeneralUnique ID : 207277296100713260431376896178923042983 (0x9BF027B6F0BB4A1DBE5E26BCE2C4F8A7)Complete name : XXXXXXXXXXXX\[M-KV2501] My Little Pony Equestria Girls - Friendship Games [BDRip] [1080p]\[M-KV2501] My Little Pony Equestria Girls - Friendship Games [BDRip] [1080p].mkvFormat : MatroskaFormat version : Version 2File size : 5.34 GiBDuration : 1h 12mnOverall bit rate : 10.6 MbpsEncoded date : UTC 2015-12-14 15:52:47Writing application : mkvmerge v5.5.0 ('Healer') built on Apr 6 2012 21:43:24Writing library : libebml v1.2.3 + libmatroska v1.3.0
    VideoID : 1Format : AVCFormat/Info : Advanced Video CodecFormat profile : High@L4.1Format settings, CABAC : YesFormat settings, ReFrames : 4 framesCodec ID : V_MPEG4/ISO/AVCDuration : 1h 12mnBit rate : 5 443 KbpsWidth : 1 920 pixelsHeight : 1 080 pixelsDisplay aspect ratio : 16:9Frame rate mode : ConstantFrame rate : 23.976 fpsColor space : YUVChroma subsampling : 4:2:0Bit depth : 8 bitsScan type : ProgressiveBits/(Pixel*Frame) : 0.109Stream size : 2.75 GiB (52%)Title : OriginalWriting library : x264 core 148 r2597 e86f3a1Encoding settings : cabac=1 / ref=4 / deblock=1:-2:-1 / analyse=0x3:0x113 / me=tesa / subme=11 / psy=1 / psy_rd=1.00:0.00 / mixed_ref=1 / me_range=32 / chroma_me=1 / trellis=2 / 8x8dct=1 / cqm=0 / deadzone=21,11 / fast_pskip=0 / chroma_qp_offset=-2 / threads=12 / lookahead_threads=3 / sliced_threads=0 / nr=0 / decimate=1 / interlaced=0 / bluray_compat=0 / constrained_intra=0 / bframes=16 / b_pyramid=2 / b_adapt=2 / b_bias=0 / direct=3 / weightb=1 / open_gop=0 / weightp=2 / keyint=240 / keyint_min=23 / scenecut=40 / intra_refresh=0 / rc_lookahead=60 / rc=crf / mbtree=1 / crf=14.5 / qcomp=0.60 / qpmin=0 / qpmax=69 / qpstep=4 / vbv_maxrate=62500 / vbv_bufsize=78125 / crf_max=0.0 / nal_hrd=none / filler=0 / ip_ratio=1.40 / aq=1:1.00Language : EnglishDefault : YesForced : No
    Audio #1ID : 2Format : DTSFormat/Info : Digital Theater SystemsMode : 16Format settings, Endianness : BigCodec ID : A_DTSDuration : 1h 12mnBit rate mode : ConstantBit rate : 1 509 KbpsChannel(s) : 6 channelsChannel positions : Front: L C R, Side: L R, LFESampling rate : 48.0 KHzBit depth : 24 bitsCompression mode : LossyStream size : 781 MiB (14%)Title : ALEKS KVLanguage : RussianDefault : YesForced : No
    Audio #2ID : 3Format : DTSFormat/Info : Digital Theater SystemsMode : 16Format settings, Endianness : BigCodec ID : A_DTSDuration : 1h 12mnBit rate mode : ConstantBit rate : 1 509 KbpsChannel(s) : 6 channelsChannel positions : Front: L C R, Side: L R, LFESampling rate : 48.0 KHzBit depth : 24 bitsCompression mode : LossyStream size : 781 MiB (14%)Title : Трина Дубовицкая и ALEKS KVLanguage : RussianDefault : NoForced : No
    Audio #3ID : 4Format : AC-3Format/Info : Audio Coding 3Mode extension : CM (complete main)Format settings, Endianness : BigCodec ID : A_AC3Duration : 1h 12mnBit rate mode : ConstantBit rate : 192 KbpsChannel(s) : 2 channelsChannel positions : Front: L RSampling rate : 48.0 KHzBit depth : 16 bitsCompression mode : LossyStream size : 99.4 MiB (2%)Title : ПлюсПлюсLanguage : UkrainianDefault : NoForced : No
    Audio #4ID : 5Format : DTSFormat/Info : Digital Theater SystemsMode : 16Format settings, Endianness : BigCodec ID : A_DTSDuration : 1h 12mnBit rate mode : ConstantBit rate : 1 509 KbpsChannel(s) : 6 channelsChannel positions : Front: L C R, Side: L R, LFESampling rate : 48.0 KHzBit depth : 24 bitsCompression mode : LossyStream size : 781 MiB (14%)Title : OriginalLanguage : EnglishDefault : NoForced : No
    Audio #5ID : 6Format : AC-3Format/Info : Audio Coding 3Mode extension : CM (complete main)Format settings, Endianness : BigCodec ID : A_AC3Duration : 1h 12mnBit rate mode : ConstantBit rate : 192 KbpsChannel(s) : 2 channelsChannel positions : Front: L RSampling rate : 48.0 KHzBit depth : 16 bitsCompression mode : LossyStream size : 99.4 MiB (2%)Title : CommentsLanguage : EnglishDefault : NoForced : No
    Text #1ID : 7Format : ASSCodec ID : S_TEXT/ASSCodec ID/Info : Advanced Sub Station AlphaCompression mode : LosslessTitle : Anon2AnonLanguage : RussianDefault : NoForced : No
    Text #2ID : 8Format : ASSCodec ID : S_TEXT/ASSCodec ID/Info : Advanced Sub Station AlphaCompression mode : LosslessTitle : TheDoctor TeamLanguage : RussianDefault : NoForced : No
    Text #3ID : 9Format : ASSCodec ID : S_TEXT/ASSCodec ID/Info : Advanced Sub Station AlphaCompression mode : LosslessTitle : Original (Color)Language : EnglishDefault : NoForced : No
    Text #4ID : 10Format : UTF-8Codec ID : S_TEXT/UTF8Codec ID/Info : UTF-8 Plain TextTitle : Original from BD (SRT)Language : EnglishDefault : NoForced : No
    Text #5ID : 11Format : PGSMuxing mode : zlibCodec ID : S_HDMV/PGSCodec ID/Info : The same subtitle format used on BDs/HD-DVDsTitle : Original from BDLanguage : EnglishDefault : NoForced : No

    Скриншоты


  • _________________
    Показать сообщения:    

    Текущее время: Сегодня 08:27

    Часовой пояс: GMT



    Вы не можете начинать темы
    Вы не можете отвечать на сообщения
    Вы не можете редактировать свои сообщения
    Вы не можете удалять свои сообщения
    Вы не можете голосовать в опросах
    Вы не можете прикреплять файлы к сообщениям
    Вы не можете скачивать файлы